Волчья яма 2 / Wolf Creek 2 (Грег МакЛин / Greg McLean) [2013, Австралия, ужасы, триллер, BDRip 1080p] DVO + 2 VO + Original (Eng) + Subs (Rus, Eng)

Ответить на тему
 
Автор Сообщение

user ®

Стаж: 7 лет 7 месяцев

Сообщений: 20008

Пост Пост: #1 от 16-Авг-2014 02:35

[Цитировать]

Волчья яма 2 / Wolf Creek 2
Страна: Австралия
Жанр: ужасы, триллер
Год выпуска: 2013
Продолжительность: 01:46:16
Перевод: 1. Любительский (двухголосый закадровый) - den904 & DeadSno, перевод - Северный
2. Одноголосый закадровый: перевод и озвучка - Хихидок
3. Одноголосый закадровый: R.A.I.M по субтитрам Хихидок и Северный
Оригинальная аудиодорожка: английский
Cубтитры: русские, английские (полные и SDH)-Режиссер: Грег МакЛин / Greg McLean
В ролях: Джон Джэррэт (Mick Taylor), Райан Корр (Paul Hammersmith), Шеннон Эшлин (Katarina Schmidt), Филлипп Клаус (Rutger Enqvist), Шэйн Коннор (Snr. Sergeant Gary Bulmer Jnr), Бен Джеррард (Constable Brian O'Connor), Герард Кеннеди (Jack), Энни Байрон (Lil)-Описание: Туристы Рутгер, Катарина и Пол приезжают к знаменитой австралийской достопримечательности, кратеру потухшего вулкана Волчья Яма. Их мечты о приключениях вскоре обращаются в чудовищную реальность, когда они сталкиваются с печально известным местным жителем, садистом-убийцей Миком Тэйлором…-СЭМПЛ
Тип релиза: BDRip 1080p
Исходник: [url=http://***/forum/viewtopic.php?t=4757741]Wolf.Creek.2.2013.BDRemux.1080p[/url] arxivariys
Контейнер: MKV
Видео: 1920x816p / 23.976 fps / 2.35:1 / High Profile 4.1 / AVC / ~ 8018 Kbps
Аудио 1: DTS / 1509 Kbps / 5.1 / 48 kHz / Russian / den904 & DeadSno
Аудио 2: DTS / 1510 Kbps / 5.1 / 48 kHz / Russian / Хихидок
Аудио 3: DTS / 1510 Kbps / 5.1 / 48 kHz / Russian / R.A.I.M
Аудио 4: DTS / 1509 Kbps / 5.1 / 48 kHz / English / original
Формат субтитров: softsub (SRT)
Спасибо Хихидок и raim5454 (R.A.I.M) за предоставленные чистые голоса.-IMDB * КиноПоиск
Примечание: Русские субтитры отредактированы мной. Использованы переводы от Хихикающий доктор и Северный.
Дорожка №1 (den904 & DeadSno) - ненормативная лексика.
Дорожка №2 (Хихидок) - незначительное количество бранных слов.
Дорожка №3 (R.A.I.M) и русские субтитры нецензурных слов не содержат.
MediaInfo / x264 log
General
Complete name : Wolf.Creek.2.2013.BDRip.1080p.DVO.2VO.mkv
Format : Matroska
Format version : Version 2
File size : 10.6 GiB
Duration : 1h 46mn
Overall bit rate : 14.3 Mbps
Encoded date : UTC 2014-08-12 16:52:19
Writing application : mkvmerge v5.8.0 ('No Sleep / Pillow') built on Sep 2 2012 15:37:04
Writing library : libebml v1.2.3 + libmatroska v1.3.0
Video
ID : 1
Format : AVC
Format/Info : Advanced Video Codec
Format profile : High@L4.1
Format settings, CABAC : Yes
Format settings, ReFrames : 5 frames
Codec ID : V_MPEG4/ISO/AVC
Duration : 1h 46mn
Bit rate : 8 018 Kbps
Width : 1 920 pixels
Height : 816 pixels
Display aspect ratio : 2.35:1
Frame rate mode : Constant
Frame rate : 23.976 fps
Color space : YUV
Chroma subsampling : 4:2:0
Bit depth : 8 bits
Scan type : Progressive
Bits/(Pixel*Frame) : 0.213
Stream size : 5.95 GiB (56%)
Title : Wolf Creek 2 2013 1080p
Writing library : x264 core 135 r2345 f0c1c53
Encoding settings : cabac=1 / ref=5 / deblock=1:-3:-3 / analyse=0x3:0x113 / me=umh / subme=11 / psy=1 / psy_rd=1.10:0.00 / mixed_ref=1 / me_range=32 / chroma_me=1 / trellis=2 / 8x8dct=1 / cqm=0 / deadzone=21,11 / fast_pskip=1 / chroma_qp_offset=-2 / threads=6 / lookahead_threads=1 / sliced_threads=0 / nr=0 / decimate=1 / interlaced=0 / bluray_compat=0 / constrained_intra=0 / bframes=9 / b_pyramid=2 / b_adapt=2 / b_bias=0 / direct=3 / weightb=1 / open_gop=0 / weightp=2 / keyint=240 / keyint_min=23 / scenecut=40 / intra_refresh=0 / rc_lookahead=60 / rc=crf / mbtree=0 / crf=16.8 / qcomp=0.60 / qpmin=0 / qpmax=69 / qpstep=4 / vbv_maxrate=50000 / vbv_bufsize=62500 / crf_max=0.0 / nal_hrd=none / ip_ratio=1.40 / pb_ratio=1.30 / aq=2:0.90
Default : Yes
Forced : No
Audio #1
ID : 2
Format : DTS
Format/Info : Digital Theater Systems
Mode : 16
Format settings, Endianness : Big
Codec ID : A_DTS
Duration : 1h 46mn
Bit rate mode : Constant
Bit rate : 1 509 Kbps
Channel(s) : 6 channels
Channel positions : Front: L C R, Side: L R, LFE
Sampling rate : 48.0 KHz
Bit depth : 24 bits
Compression mode : Lossy
Stream size : 1.12 GiB (11%)
Title : RUS DTS 1509 6ch DVO den904 & DeadSno
Language : Russian
Default : Yes
Forced : No
Audio #2
ID : 3
Format : DTS
Format/Info : Digital Theater Systems
Mode : 16
Format settings, Endianness : Big
Codec ID : A_DTS
Duration : 1h 46mn
Bit rate mode : Constant
Bit rate : 1 510 Kbps
Channel(s) : 6 channels
Channel positions : Front: L C R, Side: L R, LFE
Sampling rate : 48.0 KHz
Bit depth : 16 bits
Compression mode : Lossy
Stream size : 1.12 GiB (11%)
Title : RUS DTS 1510 6ch VO Хихидок
Language : Russian
Default : No
Forced : No
Audio #3
ID : 4
Format : DTS
Format/Info : Digital Theater Systems
Mode : 16
Format settings, Endianness : Big
Codec ID : A_DTS
Duration : 1h 46mn
Bit rate mode : Constant
Bit rate : 1 510 Kbps
Channel(s) : 6 channels
Channel positions : Front: L C R, Side: L R, LFE
Sampling rate : 48.0 KHz
Bit depth : 16 bits
Compression mode : Lossy
Stream size : 1.12 GiB (11%)
Title : RUS DTS 1510 6ch VO R.A.I.M
Language : Russian
Default : No
Forced : No
Audio #4
ID : 5
Format : DTS
Format/Info : Digital Theater Systems
Mode : 16
Format settings, Endianness : Big
Codec ID : A_DTS
Duration : 1h 46mn
Bit rate mode : Constant
Bit rate : 1 509 Kbps
Channel(s) : 6 channels
Channel positions : Front: L C R, Side: L R, LFE
Sampling rate : 48.0 KHz
Bit depth : 24 bits
Compression mode : Lossy
Stream size : 1.12 GiB (11%)
Title : ENG DTS 1509 6ch original
Language : English
Default : No
Forced : No
Text #1
ID : 6
Format : UTF-8
Codec ID : S_TEXT/UTF8
Codec ID/Info : UTF-8 Plain Text
Title : RUS Sub Full
Language : Russian
Default : No
Forced : No
Text #2
ID : 7
Format : UTF-8
Codec ID : S_TEXT/UTF8
Codec ID/Info : UTF-8 Plain Text
Title : ENG Sub Full
Language : English
Default : No
Forced : No
Text #3
ID : 8
Format : UTF-8
Codec ID : S_TEXT/UTF8
Codec ID/Info : UTF-8 Plain Text
Title : ENG Sub SDH
Language : English
Default : No
Forced : No
Menu
00:00:00.000 : :Chapter 01
00:11:50.626 : :Chapter 02
00:21:15.773 : :Chapter 03
00:31:41.857 : :Chapter 04
00:35:12.692 : :Chapter 05
00:44:41.510 : :Chapter 06
00:53:41.007 : :Chapter 07
00:59:07.750 : :Chapter 08
01:10:23.841 : :Chapter 09
01:19:23.880 : :Chapter 10
01:32:20.656 : :Chapter 11
01:41:23.698 : :Chapter 12-x264 [info]: frame I:1246 Avg QP:13.88 size:180279
x264 [info]: frame P:33025 Avg QP:15.09 size: 79295
x264 [info]: frame B:118598 Avg QP:17.31 size: 31791
x264 [info]: consecutive B-frames: 2.4% 2.7% 8.9% 15.2% 17.3% 41.5% 5.4% 1.7% 2.0% 2.8%
Скриншот с названием Скриншоты
Скачать

Скачать торрент!

Как скачивать? · Что такое торрент? · Рейтинг и ограничения

Сайт не распространяет и не хранит электронные версии произведений, а лишь предоставляет доступ к создаваемому пользователями каталогу ссылок на торрент-файлы, которые содержат только списки хеш-сумм

[Профиль] [ЛС]
Показать сообщения:    
Ответить на тему

Текущее время: Сегодня 23:20

Часовой пояс: GMT + 4



Вы не можете начинать темы
Вы не можете отвечать на сообщения
Вы не можете редактировать свои сообщения
Вы не можете удалять свои сообщения
Вы не можете голосовать в опросах
Вы не можете прикреплять файлы к сообщениям
Вы не можете скачивать файлы