Подари мне убежище / Gimme Shelter (Рон Краусс / Ron Krauss) [2013, США, драма, BDRip 720p] MVO (iTunes) + Original Eng

Ответить на тему
 
Автор Сообщение

user ®

Стаж: 7 лет 7 месяцев

Сообщений: 20008

Пост Пост: #1 от 16-Авг-2014 02:35

[Цитировать]

Подари мне убежище / Gimme Shelter
Страна: США
Жанр: драма
Год выпуска: 2013
Продолжительность: 01:41:06
Перевод: Профессиональный (многоголосый закадровый) iTunes
Cубтитры: нет
Оригинальная аудиодорожка: английский
Режиссер: Рон Краусс / Ron Krauss
В ролях: Ванесса Энн Хадженс,Брендан Фрейзер,Розарио Доусон, Джеймс Эрл Джонс,Даша Поланко, Стефани Зостак, Эмили Миде, Энн Дауд, Кендес Смит, Ташиана Р. Вашингтон
Описание: Фильм расскажет про беременную девушку, убежавшую из дома от сварливой матери в поисках биологического отца. Последний бросил ее мать, которая была для него случайной связью из молодости. Сначала он отказывается поддержать девушку и требует от нее аборта, но потом в нем начинает просыпаться отец.
Сэмпл: http://multi-up.com/992402
Тип релиза: BDRip 720p
Контейнер: MKV
Видео: AVC, 1280x544, 23.976 fps, 5795 kb/s
Аудио: Russian: AC3, 384 kb/s, 6 ch, 48.0 KHz
Аудио 2: English: DTS, 1510 kb/s, 6 ch, 48.0 KHz

MediaInfo
Format : Matroska
Format version : Version 1
File size : 5.42 GiB
Duration : 1h 41mn
Overall bit rate : 7 679 Kbps
Encoded date : UTC 2014-08-14 13:37:17
Writing application : mkvmerge v2.0.2 ('You're My Flame') built on Feb 21 2007 23:40:55
Writing library : libebml v0.7.7 + libmatroska v0.8.1
Video
ID : 1
Format : AVC
Format/Info : Advanced Video Codec
Format profile : High@L4.1
Format settings, CABAC : Yes
Format settings, ReFrames : 10 frames
Codec ID : V_MPEG4/ISO/AVC
Duration : 1h 41mn
Bit rate : 5 795 Kbps
Width : 1 280 pixels
Height : 544 pixels
Display aspect ratio : 2.35:1
Frame rate mode : Constant
Frame rate : 23.976 fps
Color space : YUV
Chroma subsampling : 4:2:0
Bit depth : 8 bits
Scan type : Progressive
Bits/(Pixel*Frame) : 0.347
Stream size : 3.98 GiB (73%)
Writing library : x264 core 138 r2356 a1d3d17
Encoding settings : cabac=1 / ref=10 / deblock=1:-3:-3 / analyse=0x3:0x113 / me=umh / subme=10 / psy=1 / psy_rd=1.00:0.05 / mixed_ref=1 / me_range=32 / chroma_me=1 / trellis=2 / 8x8dct=1 / cqm=0 / deadzone=21,11 / fast_pskip=0 / chroma_qp_offset=-2 / threads=18 / lookahead_threads=1 / sliced_threads=0 / nr=0 / decimate=1 / interlaced=0 / bluray_compat=0 / constrained_intra=0 / bframes=4 / b_pyramid=2 / b_adapt=2 / b_bias=0 / direct=3 / weightb=1 / open_gop=0 / weightp=2 / keyint=250 / keyint_min=23 / scenecut=40 / intra_refresh=0 / rc=2pass / mbtree=0 / bitrate=5795 / ratetol=1.0 / qcomp=0.70 / qpmin=0 / qpmax=69 / qpstep=4 / cplxblur=20.0 / qblur=0.5 / ip_ratio=1.40 / pb_ratio=1.30 / aq=2:0.90
Language : English
Default : Yes
Forced : No
Audio #1
ID : 2
Format : AC-3
Format/Info : Audio Coding 3
Mode extension : CM (complete main)
Format settings, Endianness : Big
Codec ID : A_AC3
Duration : 1h 41mn
Bit rate mode : Constant
Bit rate : 384 Kbps
Channel(s) : 6 channels
Channel positions : Front: L C R, Side: L R, LFE
Sampling rate : 48.0 KHz
Bit depth : 16 bits
Compression mode : Lossy
Stream size : 278 MiB (5%)
Title : AC3, 384 kb/s (6 ch)
Language : Russian
Default : Yes
Forced : No
Audio #2
ID : 3
Format : DTS
Format/Info : Digital Theater Systems
Codec ID : A_DTS
Duration : 1h 41mn
Bit rate mode : Constant
Bit rate : 1 510 Kbps
Channel(s) : 6 channels
Channel positions : Front: L C R, Side: L R, LFE
Sampling rate : 48.0 KHz
Bit depth : 24 bits
Compression mode : Lossy
Stream size : 1.07 GiB (20%)
Title : English: DTS, 1510 kb/s (6 ch)
Default : No
Forced : No
Скриншоты
Скачать

Скачать торрент!

Как скачивать? · Что такое торрент? · Рейтинг и ограничения

Сайт не распространяет и не хранит электронные версии произведений, а лишь предоставляет доступ к создаваемому пользователями каталогу ссылок на торрент-файлы, которые содержат только списки хеш-сумм

[Профиль] [ЛС]
Показать сообщения:    
Ответить на тему

Текущее время: Сегодня 20:04

Часовой пояс: GMT + 4



Вы не можете начинать темы
Вы не можете отвечать на сообщения
Вы не можете редактировать свои сообщения
Вы не можете удалять свои сообщения
Вы не можете голосовать в опросах
Вы не можете прикреплять файлы к сообщениям
Вы не можете скачивать файлы