Пластик / Plastic (Джулиан Джилби / Julian Gilbey.) [2014, Великобритания, боевик, драма, комедия, WEB-DLRip] Dub

Ответить на тему
 
Автор Сообщение

user ®

Стаж: 7 лет 7 месяцев

Сообщений: 20008

Пост Пост: #1 от 16-Авг-2014 02:35

[Цитировать]

Пластик / Plastic- Страна: Великобритания
Жанр: боевик, драма, комедия
Год выпуска: 2014
Продолжительность: 01:41:24-Перевод: Профессиональный (дублированный)
Cубтитры: нет
Режиссер: Джулиан Джилби / Julian Gilbey.-В ролях: Эмма Ригби, Эдвард Спелирс, Уилл Поултер, Элфи Оуэн-Аллен, Себастьян Де Соуза, Томас Кречман, Грэм МакТавиш, Малез Джоу, Терри Стоун, Эшли Чин.-Описание: Фильм основан на реальной истории. Банде друзей удалось проникнуть в одну из самых больших в мире компаний, которая работает с кредитными картами. Им удается провернуть одну из самых дерзких краж в британской истории.-КиноПоиск | IMDB | Семпл-Качество видео: WEB-DLRip [ WEB-DL/720p/]
Формат видео: AVI
Видео: 672x288 (2.33:1), 24 fps, XviD build 73 ~900 kbps avg, 0.19 bit/pixel
Аудио: 48 kHz, MPEG Layer 3, 2 ch, ~128.00 kbps avg
MediaInfo
General
Complete name : E:\Пластик.745.(Logan1995).avi
Format : AVI
Format/Info : Audio Video Interleave
File size : 753 Мбайт
Duration : 1 ч. 41 м.
Overall bit rate : 1038 Кбит/сек
Writing application : VirtualDubMod 1.5.10.3 | www.virtualdub-fr.org || (build 2550/release)
Writing library : VirtualDubMod build 2550/release
Video
ID : 0
Format : MPEG-4 Visual
Format profile : Advanced Simple@L5
Format settings, BVOP : 1
Format settings, QPel : Нет
Format settings, GMC : Без точки перехода
Format settings, Matrix : Выборочная
Codec ID : XVID
Codec ID/Hint : XviD
Duration : 1 ч. 41 м.
Bit rate : 901 Кбит/сек
Width : 672 пикс.
Height : 288 пикс.
Display aspect ratio : 2,35:1
Frame rate : 24,000 кадр/сек
Color space : YUV
Chroma subsampling : 4:2:0
Bit depth : 8 бит
Scan type : Прогрессивная
Compression mode : С потерями
Bits/(Pixel*Frame) : 0.194
Stream size : 653 Мбайт (87%)
Writing library : XviD 73
Audio
ID : 1
Format : MPEG Audio
Format version : Version 1
Format profile : Layer 3
Codec ID : 55
Codec ID/Hint : MP3
Duration : 1 ч. 41 м.
Bit rate mode : Постоянный
Bit rate : 128 Кбит/сек
Channel(s) : 2 канала(ов)
Sampling rate : 48,0 КГц
Compression mode : С потерями
Stream size : 92,8 Мбайт (12%)
Alignment : Соединение по промежуткам
Interleave, duration : 42 мс. (1,00 видеокадр)
Interleave, preload duration : 504 ms
Writing library : LAME3.99r
Encoding settings : -m s -V 4 -q 2 -lowpass 17 -b 128
Скриншот c названием фильма Скриншоты Сравнения
[url=http://***/forum/viewtopic.php?t=4777781]http://***/forum/viewtopic.php?t=4777781[/url] http://screenshotcomparison.com/comparison/87882/picture:0
Скачать

Скачать торрент!

Как скачивать? · Что такое торрент? · Рейтинг и ограничения

Сайт не распространяет и не хранит электронные версии произведений, а лишь предоставляет доступ к создаваемому пользователями каталогу ссылок на торрент-файлы, которые содержат только списки хеш-сумм

[Профиль] [ЛС]
Показать сообщения:    
Ответить на тему

Текущее время: Сегодня 17:45

Часовой пояс: GMT + 4



Вы не можете начинать темы
Вы не можете отвечать на сообщения
Вы не можете редактировать свои сообщения
Вы не можете удалять свои сообщения
Вы не можете голосовать в опросах
Вы не можете прикреплять файлы к сообщениям
Вы не можете скачивать файлы