Пластик / Plastic (Джулиан Джилби / Julian Gilbey.) [2014, Великобритания, боевик, драма, комедия, WEB-DLRip] Dub

Ответить на тему
 
Автор Сообщение

user ®

Стаж: 7 лет 7 месяцев

Сообщений: 20008

Пост Пост: #1 от 15-Авг-2014 01:10

[Цитировать]

Пластик / Plastic- Страна: Великобритания
Жанр: боевик, драма, комедия
Год выпуска: 2014
Продолжительность: 01:41:24-Перевод: Профессиональный (дублированный)
Cубтитры: нет
Режиссер: Джулиан Джилби / Julian Gilbey.-В ролях: Эмма Ригби, Эдвард Спелирс, Уилл Поултер, Элфи Оуэн-Аллен, Себастьян Де Соуза, Томас Кречман, Грэм МакТавиш, Малез Джоу, Терри Стоун, Эшли Чин.-Описание: Фильм основан на реальной истории. Банде друзей удалось проникнуть в одну из самых больших в мире компаний, которая работает с кредитными картами. Им удается провернуть одну из самых дерзких краж в британской истории.-КиноПоиск | IMDB | Семпл-Качество видео: WEB-DLRip [ WEB-DL/720p/]
Формат видео: AVI
Видео: 720x304 (2.37:1), 24 fps, XviD build 73 ~1663 kbps avg, 0.32 bit/pixel
Аудио: 48 kHz, AC3 Dolby Digital, 3/2 (L,C,R,l,r) + LFE ch, ~384 kbps
MediaInfo
General
Complete name : E:\Пластик.(Logan1995).avi
Format : AVI
Format/Info : Audio Video Interleave
File size : 1,46 Гбайт
Duration : 1 ч. 41 м.
Overall bit rate : 2057 Кбит/сек
Writing application : VirtualDubMod 1.5.10.3 | www.virtualdub-fr.org || (build 2550/release)
Writing library : VirtualDubMod build 2550/release
Video
ID : 0
Format : MPEG-4 Visual
Format profile : Advanced Simple@L5
Format settings, BVOP : 1
Format settings, QPel : Нет
Format settings, GMC : Без точки перехода
Format settings, Matrix : Выборочная
Codec ID : XVID
Codec ID/Hint : XviD
Duration : 1 ч. 41 м.
Bit rate : 1664 Кбит/сек
Width : 720 пикс.
Height : 304 пикс.
Display aspect ratio : 2,35:1
Frame rate : 24,000 кадр/сек
Color space : YUV
Chroma subsampling : 4:2:0
Bit depth : 8 бит
Scan type : Прогрессивная
Compression mode : С потерями
Bits/(Pixel*Frame) : 0.317
Stream size : 1,18 Гбайт (81%)
Writing library : XviD 73
Audio
ID : 1
Format : AC-3
Format/Info : Audio Coding 3
Mode extension : CM (complete main)
Codec ID : 2000
Duration : 1 ч. 41 м.
Bit rate mode : Постоянный
Bit rate : 384 Кбит/сек
Channel(s) : 6 канала(ов)
Channel positions : Front: L C R, Side: L R, LFE
Sampling rate : 48,0 КГц
Bit depth : 16 бит
Compression mode : С потерями
Stream size : 279 Мбайт (19%)
Alignment : Разделение по промежуткам
Interleave, duration : 42 мс. (1,00 видеокадр)
Interleave, preload duration : 500 ms
Скриншот c названием фильма Скриншоты Сравнения
[url=http://***/forum/viewtopic.php?t=4777762]http://***/forum/viewtopic.php?t=4777762[/url] http://screenshotcomparison.com/comparison/87766/picture:0
Скачать

Скачать торрент!

Как скачивать? · Что такое торрент? · Рейтинг и ограничения

Сайт не распространяет и не хранит электронные версии произведений, а лишь предоставляет доступ к создаваемому пользователями каталогу ссылок на торрент-файлы, которые содержат только списки хеш-сумм

[Профиль] [ЛС]
Показать сообщения:    
Ответить на тему

Текущее время: Сегодня 22:41

Часовой пояс: GMT + 4



Вы не можете начинать темы
Вы не можете отвечать на сообщения
Вы не можете редактировать свои сообщения
Вы не можете удалять свои сообщения
Вы не можете голосовать в опросах
Вы не можете прикреплять файлы к сообщениям
Вы не можете скачивать файлы