Злодей / Ek Villain (Мохит Сури / Mohit Suri) [2014, Индия, драма, DVDRip] Sub Rus

Ответить на тему
 
Автор Сообщение

user ®

Стаж: 12 лет

Сообщений: 15092

Пост Пост: #1 от 14-Авг-2014 12:25

[Цитировать]

Злодей / Ek Villain
Страна: Индия
Жанр: романтический триллер
Год выпуска: 2014
Продолжительность: 02:03:47
Перевод: Субтитры
Cубтитры: русские
Оригинальная аудиодорожка: хинди
Режиссер: Мохит Сури / Mohit Suri
В ролях: Сидхарт Мальхотра,Шраддха Капур,Ритеш Дешмукх,Амна Шариф,Ремо Фернандез,Камал Р.Кхан,Прачи Десаи
Описание: В жизни жестокого бандита Гуру не было даже тонкого лучика света,пока не появилась Она.Она изменила все.Она научила его жить,любить,радоваться.Но Ее отняли.Хладнокровный убийца забрал самое дорогое в жизни Гуру.Теперь у Гуру один путь-месть.


Качество видео: DVDRip
Формат видео: MKV
Видео: AVC, 1288x544, 2069 Kbps, 23.976 fps
Аудио: AC-3, 6 ch, 48.0 KHz, 448 Kbps
Формат субтитров: softsub (SRT)
MediaInfo
Format : Matroska
Format version : Version 4 / Version 2
File size : 2,18 Гбайт
Duration : 2 ч. 3 м.
Overall bit rate : 2519 Кбит/сек
Encoded date : UTC 2014-08-12 10:12:54
Writing application : mkvmerge v7.0.0 ('Where We Going') 64bit built on Jun 9 2014 15:16:27
Writing library : libebml v1.3.0 + libmatroska v1.4.1
_STATISTICS_WRITING_APP : mkvmerge v7.0.0 ('Where We Going') 64bit built on Jun 9 2014 15:16:27
_STATISTICS_WRITING_DATE_UTC : 2014-08-12 10:12:54
_STATISTICS_TAGS : BPS DURATION NUMBER_OF_FRAMES NUMBER_OF_BYTES
DURATION : 02:03:47.232000000
NUMBER_OF_FRAMES : 232101
NUMBER_OF_BYTES : 415924992
Видео
ID : 1
Format : AVC
Format/Info : Advanced Video Codec
Format profile : High@L3.1
Format settings, CABAC : Да
Format settings, ReFrames : 5 кадров
Codec ID : V_MPEG4/ISO/AVC
Duration : 2 ч. 3 м.
Bit rate : 2069 Кбит/сек
Width : 1288 пикселей
Height : 544 пикселя
Display aspect ratio : 2,35:1
Frame rate mode : Постоянный
Frame rate : 23,976 кадра/сек
Color space : YUV
Chroma subsampling : 4:2:0
Bit depth : 8 бит
Scan type : Прогрессивная
Bits/(Pixel*Frame) : 0.123
Stream size : 1,75 Гбайт (80%)
Writing library : x264 core 142 r2431 ac76440
Encoding settings : cabac=1 / ref=5 / deblock=1:-1:-1 / analyse=0x3:0x133 / me=umh / subme=6 / psy=1 / psy_rd=1.00:0.00 / mixed_ref=1 / me_range=16 / chroma_me=1 / trellis=2 / 8x8dct=1 / cqm=0 / deadzone=21,11 / fast_pskip=1 / chroma_qp_offset=-2 / threads=12 / lookahead_threads=2 / sliced_threads=0 / nr=0 / decimate=1 / interlaced=0 / bluray_compat=0 / constrained_intra=0 / bframes=3 / b_pyramid=2 / b_adapt=2 / b_bias=0 / direct=3 / weightb=1 / open_gop=0 / weightp=2 / keyint=240 / keyint_min=23 / scenecut=40 / intra_refresh=0 / rc=2pass / mbtree=0 / bitrate=2069 / ratetol=1.0 / qcomp=0.60 / qpmin=10 / qpmax=51 / qpstep=4 / cplxblur=20.0 / qblur=0.5 / ip_ratio=1.40 / pb_ratio=1.30 / aq=1:1.00
Default : Да
Forced : Нет
Аудио
ID : 2
Format : AC-3
Format/Info : Audio Coding 3
Mode extension : CM (complete main)
Format settings, Endianness : Big
Codec ID : A_AC3
Duration : 2 ч. 3 м.
Bit rate mode : Постоянный
Bit rate : 448 Кбит/сек
Channel(s) : 6 каналов
Channel positions : Front: L C R, Side: L R, LFE
Sampling rate : 48,0 КГц
Bit depth : 16 бит
Compression mode : С потерями
Stream size : 397 Мбайт (18%)
Default : Да
Forced : Нет
Скриншот c названием фильма Скриншоты Пример субтитров
579
00:41:09,166 --> 00:41:11,305
Не бойся.Стреляй!
580
00:41:23,080 --> 00:41:24,081
Гуру.
581
00:41:25,549 --> 00:41:29,019
Не позволяй этому огню тебя поглотить,Гуру.
582
00:41:29,720 --> 00:41:32,667
Сожги мир этой лавой!
583
00:41:33,457 --> 00:41:35,334
А потом возвращайся сюда!
584
00:41:36,293 --> 00:41:38,000
Ко мне!
585
00:41:38,329 --> 00:41:43,244
Потому что лев должен жить в лесу!
586
00:41:43,567 --> 00:41:46,104
Ты лев! Мой лев!
587
00:41:46,170 --> 00:41:48,343
Ты идиот! Полный идиот!
588
00:41:48,405 --> 00:41:50,385
Ты совершенно бесполезен.
589
00:41:50,441 --> 00:41:53,479
Господи! Ракеш Махадкар,что мне с тобой делать?
590
00:41:53,544 --> 00:41:55,114
Что это за ерунда?!
591
00:42:05,155 --> 00:42:06,225
Мадам.
-Бриджеш!
2023
00:42:06,724 --> 00:42:09,225
"Работник месяца.
За выдающиеся заслуги награждается Бриджеш Ядав в марте 2014"
592
00:42:06,724 --> 00:42:09,637
Я заработал много денег на незаконной сделке,
593
00:42:09,693 --> 00:42:12,401
Я честно принес твою долю.
594
00:42:12,663 --> 00:42:14,267
Ты такой испорченный.
595
00:42:14,632 --> 00:42:16,669
Почему ты не объяснишь своему другу?
596
00:42:17,101 --> 00:42:20,207
Ты такой активный,в то время как он сплошная лень.
597
00:42:20,271 --> 00:42:21,614
Он пришел ко мне и спросил,каковы его шансы...
598
00:42:21,672 --> 00:42:24,243
...стать сотрудником месяца.
599
00:42:24,308 --> 00:42:27,448
Да ксерокс в этом офисе работает больше тебя.
Скачать

Скачать торрент! Злодей / Ek Villain (Мохит Сури / Mohit Suri) [2014, Индия, драма, DVDRip] Sub Rus

Как скачивать? · Что такое торрент? · Рейтинг и ограничения

Сайт не распространяет и не хранит электронные версии произведений, а лишь предоставляет доступ к создаваемому пользователями каталогу ссылок на торрент-файлы, которые содержат только списки хеш-сумм

[Профиль] [ЛС]
Показать сообщения:    
Ответить на тему

Текущее время: Сегодня 06:56

Часовой пояс: GMT + 4



Вы не можете начинать темы
Вы не можете отвечать на сообщения
Вы не можете редактировать свои сообщения
Вы не можете удалять свои сообщения
Вы не можете голосовать в опросах
Вы не можете прикреплять файлы к сообщениям
Вы не можете скачивать файлы