Этим утром в Нью-Йорке / The Angriest Man in Brooklyn (Фил Олден Робинсон / Phil Alden Robinson) [2014, США, драма, комедия, BDRip-AVC] Dub (LINE) + Original (Eng) + Sub (Eng)

Ответить на тему
 
Автор Сообщение

user ®

Стаж: 8 лет 2 месяца

Сообщений: 20008

Пост Пост: #1 от 14-Авг-2014 02:55

[Цитировать]

Этим утром в Нью-Йорке / The Angriest Man in Brooklyn
Страна: США
Жанр: драма, комедия
Год выпуска: 2014
Продолжительность: 01:23:44
Перевод: Профессиональный (дублированный) | LINE
Cубтитры: английские
Оригинальная аудиодорожка: английский
Режиссер: Фил Олден Робинсон / Phil Alden Robinson
В ролях: Робин Уильямс, Мила Кунис, Питер Динклэйдж, Мелисса Лео, Хамиш Линклэйтер, Саттон Фостер, Джеймс Эрл Джонс, Ричард Кайнд, Дэниэл Рэймонт, Крис Гезерд
Описание: Женщина-врач по ошибке сообщает одному вредному пациенту, что ему осталось жить полтора часа. Стремясь исправить свою адскую оплошность, она устремляется на поиски человека, который решил, пока не поздно, исправить все ошибки, совершенные им в жизни...

Доп. информация: штатовский исходник, более качественный но пересвеченый, приведен к нормальной цветности канадского
Исходник: The Angriest Man in Brooklyn 2014 1080p Blu-ray AVC DTS-HD MA 5.1-HDWinG
Качество видео: BDRip-AVC | sample
Формат видео: MKV
Видео кодек: x264
Видео: AVC 896x504 (16:9), 23.976 fps, ~2220 Kbps, 0.21 bit/pixel
Аудио #1: Russian AC3 2ch 48kHz 192Kbps | Dub LINE
Аудио #2: English AAC-LC 6ch 48kHz ~254Kbps | Original (отдельным файлом)
Формат субтитров: softsub (SRT)
Главы: есть

MediaInfo | x264
x264
--[Information] [10.08.2014 9:23:59] raw [info]: 896x504p 1:1 @ 24000/1001 fps (cfr)
--[Information] [10.08.2014 9:23:59] x264 [info]: profile High, level 4.1
--[Information] [10.08.2014 19:56:06] x264 [info]: frame I:926 Avg QP:15.14 size: 78685
--[Information] [10.08.2014 19:56:06] x264 [info]: frame P:23330 Avg QP:18.43 size: 28727
--[Information] [10.08.2014 19:56:06] x264 [info]: frame B:96200 Avg QP:20.96 size: 6779
--[Information] [10.08.2014 19:56:06] x264 [info]: consecutive B-frames: 1.3% 1.2% 5.4% 15.4% 15.1% 46.8% 4.4% 5.2% 1.9% 0.5% 0.5% 0.6% 1.0% 0.2% 0.4%
--[Information] [10.08.2014 19:56:06] x264 [info]: kb/s:2221.67
General
Complete name : D:\...\The.Angriest.Man.in.Brooklyn.2014.Hybrid.BDRip.x264.AC3.Rus.LINE-E76.mkv
Format : Matroska
Format version : Version 2
File size : 1.41 GiB
Duration : 1h 23mn
Overall bit rate : 2 416 Kbps
Movie name : The.Angriest.Man.in.Brooklyn.2014.Hybrid.BDRip.x264.AC3.Rus.LINE-E76
Encoded date : UTC 2014-08-12 02:58:53
Writing application : mkvmerge v7.0.0 ('Where We Going') 64bit built on Jun 9 2014 15:16:27
Writing library : libebml v1.3.0 + libmatroska v1.4.1
Video
ID : 1
Format : AVC
Format/Info : Advanced Video Codec
Format profile : High@L4.1
Format settings, CABAC : Yes
Format settings, ReFrames : 12 frames
Codec ID : V_MPEG4/ISO/AVC
Duration : 1h 23mn
Bit rate : 2 222 Kbps
Width : 896 pixels
Height : 504 pixels
Display aspect ratio : 16:9
Frame rate mode : Constant
Frame rate : 23.976 fps
Color space : YUV
Chroma subsampling : 4:2:0
Bit depth : 8 bits
Scan type : Progressive
Bits/(Pixel*Frame) : 0.205
Stream size : 1.27 GiB (90%)
Title : Encode by E76
Writing library : x264 core 142 r2431kMod ac76440
Encoding settings : cabac=1 / ref=12 / deblock=1:-3:-3 / analyse=0x3:0x113 / me=umh / subme=11 / psy=1 / fade_compensate=0.00 / psy_rd=1.00:0.00 / mixed_ref=1 / me_range=48 / chroma_me=1 / trellis=2 / 8x8dct=1 / cqm=0 / deadzone=21,11 / fast_pskip=0 / chroma_qp_offset=-2 / threads=6 / lookahead_threads=1 / sliced_threads=0 / nr=0 / decimate=0 / interlaced=0 / bluray_compat=0 / constrained_intra=0 / fgo=0 / bframes=14 / b_pyramid=2 / b_adapt=2 / b_bias=0 / direct=3 / weightb=1 / open_gop=0 / weightp=2 / keyint=240 / keyint_min=23 / scenecut=40 / intra_refresh=0 / rc_lookahead=120 / rc=2pass / mbtree=1 / bitrate=2222 / ratetol=1.0 / qcomp=0.65 / qpmin=0 / qpmax=69 / qpstep=4 / cplxblur=20.0 / qblur=0.5 / vbv_maxrate=50000 / vbv_bufsize=62500 / nal_hrd=none / filler=0 / ip_ratio=1.30 / aq=1:1.00 / zones=112675,120455,q=30
Language : English
Default : Yes
Forced : No
Matrix coefficients : BT.709
Audio
ID : 2
Format : AC-3
Format/Info : Audio Coding 3
Mode extension : CM (complete main)
Format settings, Endianness : Big
Codec ID : A_AC3
Duration : 1h 23mn
Bit rate mode : Constant
Bit rate : 192 Kbps
Channel(s) : 2 channels
Channel positions : Front: L R
Sampling rate : 48.0 KHz
Bit depth : 16 bits
Compression mode : Lossy
Stream size : 115 MiB (8%)
Title : Dub LINE
Language : Russian
Default : Yes
Forced : No
Text
ID : 3
Format : UTF-8
Codec ID : S_TEXT/UTF8
Codec ID/Info : UTF-8 Plain Text
Language : English
Default : No
Forced : No
Menu
00:00:00.000 : en:Chapter 01
00:06:57.584 : en:Chapter 02
...
01:18:22.573 : en:Chapter 12
Скриншоты => [url=http://***/forum/viewtopic.php?t=866172]Новые релизы в AVC[/url] | | [url=http://***/forum/viewtopic.php?t=3177622]Заказ рипов в AVC[/url]
Скачать

Скачать торрент!

Как скачивать? · Что такое торрент? · Рейтинг и ограничения

Сайт не распространяет и не хранит электронные версии произведений, а лишь предоставляет доступ к создаваемому пользователями каталогу ссылок на торрент-файлы, которые содержат только списки хеш-сумм

[Профиль] [ЛС]
Показать сообщения:    
Ответить на тему

Текущее время: Сегодня 23:08

Часовой пояс: GMT + 4



Вы не можете начинать темы
Вы не можете отвечать на сообщения
Вы не можете редактировать свои сообщения
Вы не можете удалять свои сообщения
Вы не можете голосовать в опросах
Вы не можете прикреплять файлы к сообщениям
Вы не можете скачивать файлы