Орел и крот (Пантелеймон Сазонов, Ламис Бредис) [1944, Мультфильм,короткометражка, TVRip]

Ответить на тему
 
Автор Сообщение

user ®

Стаж: 7 лет 7 месяцев

Сообщений: 20008

Пост Пост: #1 от 13-Авг-2014 03:10

[Цитировать]

Орел и крот
Страна: СССР
Жанр: Мультфильм,короткометражка
Продолжительность: 00:06:10
Год выпуска: 1944
Русские субтитры: нет
Режиссёр: Пантелеймон Сазонов, Ламис Бредис
Описание: По басне И.А. Крылова,о том как гордый Орел непослушал совета Крота
Доп. информация: сценаристы Ламис Бредис, Пантелеймон Сазонов
аниматоры Борис Дежкин, Геннадий Филиппов, Фаина Епифанова, Ламис Бредис
оператор Н. Соколова, А. Алипова
композитор Никита Богословский
звукооператор С. Ренский
Мультфильм чёрно-белый
Качество: TVRip
Формат: AVI
Видео: 640x480 (1.33:1), 25 fps, XviD build 64 ~2163 kbps avg, 0.28 bit/pixel
Аудио: 48 kHz, MPEG Layer 3, 2 ch, ~128.00 kbps avg
Субтитры: "отсутствуют
MediaInfo
General
Complete name : D:\Фильмы\Орел и Крот (1944)......avi
Format : AVI
Format/Info : Audio Video Interleave
File size : 102 MiB
Duration : 6mn 10s
Overall bit rate : 2 301 Kbps
Writing library : VirtualDub build 35390/release
Video
ID : 0
Format : MPEG-4 Visual
Format profile : Advanced Simple@L5
Format settings, BVOP : No
Format settings, QPel : No
Format settings, GMC : No warppoints
Format settings, Matrix : Custom
Codec ID : XVID
Codec ID/Hint : XviD
Duration : 6mn 10s
Bit rate : 2 163 Kbps
Width : 640 pixels
Height : 480 pixels
Display aspect ratio : 4:3
Frame rate : 25.000 fps
Color space : YUV
Chroma subsampling : 4:2:0
Bit depth : 8 bits
Scan type : Progressive
Bits/(Pixel*Frame) : 0.282
Stream size : 95.4 MiB (94%)
Writing library : XviD 64
Audio
ID : 1
Format : MPEG Audio
Format version : Version 1
Format profile : Layer 3
Codec ID : 55
Codec ID/Hint : MP3
Duration : 6mn 10s
Bit rate mode : Constant
Bit rate : 128 Kbps
Channel(s) : 2 channels
Sampling rate : 48.0 KHz
Stream size : 5.65 MiB (6%)
Alignment : Split accross interleaves
Interleave, duration : 40 ms (1.00 video frame)
Interleave, preload duration : 500 ms
Writing library : LAME3.98r
Encoding settings : -m s -V 4 -q 2 -lowpass 17 -b 128[/pre]
Скриншоты Сравнение
[url=http://***/forum/viewtopic.php?t=1692347]http://***/forum/viewtopic.php?t=1692347[/url]
http://screenshotcomparison.com/comparison/87528/picture:0
Торент файл перезалит 12.08. 2014, заменил на лучшее качество видео
Скачать

Скачать торрент!

Как скачивать? · Что такое торрент? · Рейтинг и ограничения

Сайт не распространяет и не хранит электронные версии произведений, а лишь предоставляет доступ к создаваемому пользователями каталогу ссылок на торрент-файлы, которые содержат только списки хеш-сумм

[Профиль] [ЛС]
Показать сообщения:    
Ответить на тему

Текущее время: Сегодня 02:16

Часовой пояс: GMT + 4



Вы не можете начинать темы
Вы не можете отвечать на сообщения
Вы не можете редактировать свои сообщения
Вы не можете удалять свои сообщения
Вы не можете голосовать в опросах
Вы не можете прикреплять файлы к сообщениям
Вы не можете скачивать файлы