Морпехи 2 : Поле огня / Jarhead 2: Field of Fire (Дон Майкл Пол / Don Michael Paul) [2014, США, Боевик, военный, BDRip 720p] VO (Andi) + Sub Rus + Original Eng

Ответить на тему
 
Автор Сообщение

user ®

Стаж: 7 лет 7 месяцев

Сообщений: 20008

Пост Пост: #1 от 13-Авг-2014 00:00

[Цитировать]

Морпехи 2 : Поле Огня / Jarhead 2: Field of Fire
Страна: США
Жанр: Боевик, военный
Год выпуска: 2014
Продолжительность: 01:42:36
Перевод: Одноголосый закадровый Andi
Cубтитры: русские М.Васильев
Оригинальная аудиодорожка: английский
Режиссер: Дон Майкл Пол / Don Michael Paul
В ролях: Джейсон Вонг, Джесси Гарсиа, Стивен Лэнг
Описание: Отряд морпехов получает задание доставить груз боеприпасов на удаленный американский блокпост, затерянный в глуши Афганистана, на территории, контролируемой движением Талибан...
Доп. информация: Над релизом работали:
перевод [url=http://***/forum/profile.php?mode=viewprofile&u=21131053]М.Васильев[/url]
озвучка Andi
Сэмпл: http://multi-up.com/991915
Тип релиза: BDRip 720p
Контейнер: MKV
Видео: AVC, 1280*534, 23.976 fps, 4 578 Kbps
Аудио 1: DTS, 1 510 Kbps, 6Ch, 48.0 KHz-русский
Аудио 2: DTS, 1 510 Kbps, 6Ch, 48.0 KHz-английский
MediaInfo
General
Unique ID : 239663452588008280018676147265016741742 (0xB44D808282F231E28FF25D291734BF6E)
Complete name : L:\VO Andi\Jarhead.2.Field.of.Fire.2014.BluRay.720p.(Andi).mkv
Format : Matroska
Format version : Version 2
File size : 5.44 GiB
Duration : 1h 42mn
Overall bit rate : 7 594 Kbps
Movie name : Jarhead.2.Field.of.Fire.2014.BluRay.720p.DTS.x264-CHD
Encoded date : UTC 2014-08-09 14:01:20
Writing application : mkvmerge v5.5.0 ('Healer') built on Apr 6 2012 21:43:24
Writing library : libebml v1.2.3 + libmatroska v1.3.0
Video
ID : 1
Format : AVC
Format/Info : Advanced Video Codec
Format profile : High@L4.1
Format settings, CABAC : Yes
Format settings, ReFrames : 11 frames
Codec ID : V_MPEG4/ISO/AVC
Duration : 1h 42mn
Bit rate : 4 578 Kbps
Width : 1 280 pixels
Height : 534 pixels
Display aspect ratio : 2.40:1
Frame rate mode : Constant
Frame rate : 23.976 fps
Color space : YUV
Chroma subsampling : 4:2:0
Bit depth : 8 bits
Scan type : Progressive
Bits/(Pixel*Frame) : 0.279
Stream size : 3.17 GiB (58%)
Title : Anonymous@CHD
Writing library : x264 core 142 r2431 ac76440
Encoding settings : cabac=1 / ref=11 / deblock=1:-3:-3 / analyse=0x3:0x113 / me=umh / subme=10 / psy=1 / psy_rd=1.00:0.05 / mixed_ref=1 / me_range=32 / chroma_me=1 / trellis=2 / 8x8dct=1 / cqm=0 / deadzone=21,11 / fast_pskip=0 / chroma_qp_offset=-2 / threads=18 / lookahead_threads=1 / sliced_threads=0 / nr=0 / decimate=1 / interlaced=0 / bluray_compat=0 / constrained_intra=0 / bframes=4 / b_pyramid=2 / b_adapt=2 / b_bias=0 / direct=3 / weightb=1 / open_gop=0 / weightp=2 / keyint=250 / keyint_min=23 / scenecut=40 / intra_refresh=0 / rc=2pass / mbtree=0 / bitrate=4578 / ratetol=1.0 / qcomp=0.70 / qpmin=0 / qpmax=69 / qpstep=4 / cplxblur=20.0 / qblur=0.5 / ip_ratio=1.40 / pb_ratio=1.30 / aq=2:0.90
Language : English
Default : Yes
Forced : No
Audio #1
ID : 2
Format : DTS
Format/Info : Digital Theater Systems
Mode : 16
Format settings, Endianness : Big
Codec ID : A_DTS
Duration : 1h 42mn
Bit rate mode : Constant
Bit rate : 1 510 Kbps
Channel count : 6 channels
Channel positions : Front: L C R, Side: L R, LFE
Sampling rate : 48.0 KHz
Bit depth : 16 bits
Compression mode : Lossy
Stream size : 1.08 GiB (20%)
Title : VO Andi
Language : Russian
Default : Yes
Forced : No
Audio #2
ID : 3
Format : DTS
Format/Info : Digital Theater Systems
Mode : 16
Format settings, Endianness : Big
Codec ID : A_DTS
Duration : 1h 42mn
Bit rate mode : Constant
Bit rate : 1 509 Kbps
Channel count : 6 channels
Channel positions : Front: L C R, Side: L R, LFE
Sampling rate : 48.0 KHz
Bit depth : 24 bits
Compression mode : Lossy
Stream size : 1.08 GiB (20%)
Title : English DTS 5.1 1509Kbps
Language : English
Default : No
Forced : No
Text
ID : 4
Format : UTF-8
Codec ID : S_TEXT/UTF8
Codec ID/Info : UTF-8 Plain Text
Language : Russian
Default : No
Forced : No
Menu
00:00:00.000 : en:00:00:00.000
00:04:32.022 : en:00:04:32.022
00:10:00.183 : en:00:10:00.183
00:14:43.883 : en:00:14:43.883
00:20:42.575 : en:00:20:42.575
00:24:20.668 : en:00:24:20.668
00:29:05.911 : en:00:29:05.911
00:32:23.358 : en:00:32:23.358
00:38:24.677 : en:00:38:24.677
00:44:27.999 : en:00:44:27.999
00:48:07.093 : en:00:48:07.093
00:56:08.574 : en:00:56:08.574
00:58:16.743 : en:00:58:16.743
01:05:41.729 : en:01:05:41.729
01:10:51.456 : en:01:10:51.456
01:12:15.581 : en:01:12:15.581
Скриншоты
Скачать

Скачать торрент!

Как скачивать? · Что такое торрент? · Рейтинг и ограничения

Сайт не распространяет и не хранит электронные версии произведений, а лишь предоставляет доступ к создаваемому пользователями каталогу ссылок на торрент-файлы, которые содержат только списки хеш-сумм

[Профиль] [ЛС]
Показать сообщения:    
Ответить на тему

Текущее время: Сегодня 22:03

Часовой пояс: GMT + 4



Вы не можете начинать темы
Вы не можете отвечать на сообщения
Вы не можете редактировать свои сообщения
Вы не можете удалять свои сообщения
Вы не можете голосовать в опросах
Вы не можете прикреплять файлы к сообщениям
Вы не можете скачивать файлы