Это не ты / Роман о романе / A Novel Romance (Элли Дворин / Elli Dvorin) [2011, США, мелодрама, HDTV 1080i] MVO

Ответить на тему
 
Автор Сообщение

user ®

Стаж: 7 лет 7 месяцев

Сообщений: 20008

Пост Пост: #1 от 13-Авг-2014 00:00

[Цитировать]

Это не ты / Роман о романе / A Novel Romance Страна: США
Жанр: мелодрама
Год выпуска: 2011
Продолжительность: 01:28:06
Перевод: Профессиональный (многоголосый закадровый)
Cубтитры: нет
Режиссер: Элли Дворин / Allie Dvorin
В ролях: Шеннон Элизабет, Джеффри Росс, Наталья Рудакова, Стив Гуттенберг, Келли Бишоп, Джей О. Сэндерс, Милена Гович, Даг Э. Даг, Томас Майкл Салливан, Мэдди Кормэн
Описание: Писатель Нейт Шепэрд и прекрасная Дженни Спаркс встречаются в нью-йоркском баре. Совершенно незнакомые люди, у которых был плохой день, пришли сюда на свидание со своими партнерами, но вскоре они понимают, что, на самом деле, ждут друг друга.
В AVI от edich2 тут: [url=http://***/forum/viewtopic.php?t=4801117]http://***/forum/viewtopic.php?t=4801117[/url]

Сэмпл: http://multi-up.com/991830
Тип релиза: HDTV 1080i
Контейнер: TS
Видео: AVC/H.264, PAL, 1920x1080 (16:9), 8900 Кбит/сек, 25.000 fps
Аудио: русский, MP-2, 48000 Hz, 192 Кбит/сек, 2 ch
MediaInfo
Видео
Идентификатор : 224 (0xE0)
Идентификатор меню : 1 (0x1)
Формат : AVC
Формат/Информация : Advanced Video Codec
Профиль формата : High@L4.1
Параметр CABAC формата : Да
Параметр ReFrames формата : 3 кадра
Идентификатор кодека : 27
Продолжительность : 1 ч. 28 м.
Вид битрейта : Постоянный
Битрейт : 8900 Кбит/сек
Ширина : 1920 пикселей
Высота : 1080 пикселей
Соотношение сторон : 16:9
Частота кадров : 25,000 кадров/сек
Стандарт вещания : PAL
Цветовое пространство : YUV
Субдискретизация насыщенности : 4:2:0
Битовая глубина : 8 бит
Тип развёртки : Чересстрочная
Порядок развёртки : Верхнее поле первое
Бит/(Пиксели*Кадры) : 0.172
Размер потока : 5,37 Гбайт (93%)
Основные цвета : BT.709
Характеристики трансфера : BT.709
Коэффициенты матрицы : BT.709
Аудио
Идентификатор : 192 (0xC0)
Идентификатор меню : 1 (0x1)
Формат : MPEG Audio
Версия формата : Version 1
Профиль формата : Layer 2
Идентификатор кодека : 3
Продолжительность : 1 ч. 28 м.
Вид битрейта : Постоянный
Битрейт : 192 Кбит/сек
Каналы : 2 канала
Частота : 48,0 КГц
Метод сжатия : С потерями
Задержка видео : 24 мс.
Размер потока : 121 Мбайт (2%)
Язык : Russian
Скриншот с названием фильма Скриншоты
Скачать

Скачать торрент!

Как скачивать? · Что такое торрент? · Рейтинг и ограничения

Сайт не распространяет и не хранит электронные версии произведений, а лишь предоставляет доступ к создаваемому пользователями каталогу ссылок на торрент-файлы, которые содержат только списки хеш-сумм

[Профиль] [ЛС]
Показать сообщения:    
Ответить на тему

Текущее время: Сегодня 17:43

Часовой пояс: GMT + 4



Вы не можете начинать темы
Вы не можете отвечать на сообщения
Вы не можете редактировать свои сообщения
Вы не можете удалять свои сообщения
Вы не можете голосовать в опросах
Вы не можете прикреплять файлы к сообщениям
Вы не можете скачивать файлы