Эпоха невинности / The Age of Innocence (Мартин Скорсезе / Martin Scorsese) [1993, США, драма, мелодрама, BDRip 720p] MVO (Видеосервис) + 2x AVO (Гаврилов, Володарский) + Sub Eng + Original Eng

Ответить на тему
 
Автор Сообщение

user ®

Стаж: 7 лет 7 месяцев

Сообщений: 20008

Пост Пост: #1 от 12-Авг-2014 05:00

[Цитировать]

Эпоха невинности / The Age of Innocence
Страна: США
Жанр: драма, мелодрама
Год выпуска: 1993
Продолжительность: 02:18:25
Перевод: Профессиональный (многоголосый закадровый) Видеосервис
Перевод: Авторский (одноголосый закадровый) Андрей Гаврилов
Перевод: Авторский (одноголосый закадровый) Леонид Володарский
Cубтитры: English, English SDH
Оригинальная аудиодорожка: английский
Режиссер: Мартин Скорсезе / Martin Scorsese
В ролях: Дэниэл Дэй-Льюис, Мишель Пфайффер, Вайнона Райдер, Линда Фэй Фаркас, Майкл Риис Дэвис, Терри Кук, Джон Гаррисон, Ричард Э. Грант, Алек МакКоуэн, Джеральдин Чаплин
Описание: Романтическая история показывает великолепие и лицемерие высшего света конца 80-х годов 19-го века. Ньюлэнд Арчер — преуспевающий адвокат, в глубине души желающий настоящей страсти в своем обыденном существовании. Помолвка с милой и благовоспитанной Мэй Уэлланд обещает ему благодушную и спокойную жизнь.
Но когда кузина Мэй возвращается в Нью-Йорк после публичного скандала, Ньюлэнд попадает в сети ее тайной власти и невыразимой красоты. Теперь он вынужден сделать выбор между миром, который он знает, и миром, о котором он мог только мечтать.
Доп. информация: За энкод огромное спасибо LoVeRoSe @ HDBits. Многоголоска Видеосервиса с [url=http://***/forum/viewtopic.php?t=700550]лицензионного издания[/url]. За дорогу с Гавриловым спасибо darkman70, с Володарским - alenavova.
Сэмпл: https://yadi.sk/i/yGxlZVMBZKGpA
Тип релиза: BDRip 720p - DON
Контейнер: MKV
Видео: AVC 1280x536 (2.39:1) 23.976 fps, 5229 kbps
Аудио: Russian / Dolby Digital Audio / 5.1 / 48 kHz / 448 kbps (Многоголосый закадровый - Видеосервис)
Аудио: Russian / Dolby Digital Audio / 5.1 / 48 kHz / 448 kbps (Одноголосый закадровый - Андрей Гаврилов)
Аудио: Russian / Dolby Digital Audio / 2.0 / 48 kHz / 192 kbps (Одноголосый закадровый - Леонид Володарский)
Аудио: English / Dolby Digital Audio / 5.1 / 48 kHz / 640 kbps
The Age of Innocence 1993 720p BluRay DD5.1 x264-DON
Info
RUNTIME.......: 2h 18mnSIZE..........: 5.68 GiBVIDEO CODEC...: x264, CRF 16.7, L4.1FRAMERATE.....: 23.976 fpsBITRATE.......: 5 117 KbpsRESOLUTION....: 1280x536AUDIO ........: English 5.1ch AC-3 @ 640 KbpsSUBTITLES.....: English,English(SDH),Spanish,French,Croatian,Czech,Danish,GreekSUBTITLES.....: German,Italian,Norwegian,Polish,Romanian,Swedish,Dutch,FinnishCHAPTERS/NAMED: Yes / NoSOURCE........: The Age of Innocence 1993 PROPER 1080p EUR Blu-ray AVC DTS-HD MA 5.1-hgking(thanks!)
Source/DON/DON (HDTV)





x264 info
profile High, level 4.1x264 [info]: frame I:1298 Avg QP:15.69 size:102512x264 [info]: frame P:38705 Avg QP:17.49 size: 47016x264 [info]: frame B:159125 Avg QP:19.24 size: 21847x264 [info]: consecutive B-frames: 1.2% 2.1% 4.9% 18.8% 16.3% 29.8% 9.4% 9.8% 2.9% 1.4% 1.0% 1.9% 0.4%x264 [info]: kb/s:5229.73encoded 199128 frames, 4.509 fps, 5229.73 kb/s, 5177.8 MB
MediaInfo
Общее
Уникальный идентификатор : 203892998171704938365783896287101941075 (0x99645CF1B2003E21BCBD3893AD497553)
Формат : Matroska
Версия формата : Version 4 / Version 2
Размер файла : 6,73 Гбайт
Продолжительность : 2 ч. 18 м.
Общий поток : 6960 Кбит/сек
Дата кодирования : UTC 2014-08-09 04:43:05
Программа кодирования : mkvmerge v6.9.1 ('Blue Panther') 64bit built on Apr 18 2014 18:23:38
Библиотека кодирования : libebml v1.3.0 + libmatroska v1.4.1
Видео
Идентификатор : 1
Формат : AVC
Формат/Информация : Advanced Video Codec
Профиль формата : High@L4.1
Параметр CABAC формата : Да
Параметр ReFrames формата : 12 кадров
Идентификатор кодека : V_MPEG4/ISO/AVC
Продолжительность : 2 ч. 18 м.
Битрейт : 5093 Кбит/сек
Ширина : 1280 пикселей
Высота : 536 пикселей
Соотношение сторон : 2,40:1
Режим частоты кадров : Постоянный
Частота кадров : 23,976 кадра/сек
Цветовое пространство : YUV
Субдискретизация насыщенности : 4:2:0
Битовая глубина : 8 бит
Тип развёртки : Прогрессивная
Бит/(Пиксели*Кадры) : 0.310
Размер потока : 4,92 Гбайт (73%)
Библиотека кодирования : x264 core 142 r2409+42 04be48a tMod [8-bit@all X86_64]
Настройки программы : cabac=1 / ref=12 / deblock=1:-3:-3 / analyse=0x3:0x133 / me=esa / subme=10 / psy=1 / fade_compensate=0.00 / psy_rd=0.95:0.00 / mixed_ref=1 / me_range=32 / chroma_me=1 / trellis=2 / 8x8dct=1 / cqm=0 / deadzone=21,11 / fast_pskip=0 / chroma_qp_offset=-2 / threads=12 / lookahead_threads=3 / sliced_threads=0 / nr=0 / decimate=1 / interlaced=0 / bluray_compat=0 / constrained_intra=0 / fgo=0 / bframes=12 / b_pyramid=2 / b_adapt=2 / b_bias=0 / direct=3 / weightb=1 / open_gop=0 / weightp=2 / keyint=241 / keyint_min=23 / scenecut=40 / intra_refresh=0 / rc_lookahead=60 / rc=crf / mbtree=0 / crf=16.7000 / qcomp=0.65 / qpmin=0:0:0 / qpmax=69:69:69 / qpstep=4 / vbv_maxrate=50000 / vbv_bufsize=62500 / crf_max=0.0 / nal_hrd=none / filler=0 / ip_ratio=1.30 / pb_ratio=1.20 / aq=4:0.70 / aq-sensitivity=10.00 / aq-factor=1.00:1.00:1.00 / aq2=0 / aq3=0 / zones=191428,199127,q=26
Язык : English
Default : Да
Forced : Нет
Аудио #1
Идентификатор : 2
Формат : AC-3
Формат/Информация : Audio Coding 3
Расширение режима : CM (complete main)
Параметр Endianness формата : Big
Идентификатор кодека : A_AC3
Продолжительность : 2 ч. 18 м.
Вид битрейта : Постоянный
Битрейт : 448 Кбит/сек
Каналы : 6 каналов
Расположение каналов : Front: L C R, Side: L R, LFE
Частота : 48,0 КГц
Битовая глубина : 16 бит
Метод сжатия : С потерями
Размер потока : 444 Мбайт (6%)
Заголовок : MVO - Видеосервис
Язык : Russian
Default : Да
Forced : Нет
Аудио #2
Идентификатор : 3
Формат : AC-3
Формат/Информация : Audio Coding 3
Расширение режима : CM (complete main)
Параметр Endianness формата : Big
Идентификатор кодека : A_AC3
Продолжительность : 2 ч. 18 м.
Вид битрейта : Постоянный
Битрейт : 448 Кбит/сек
Каналы : 6 каналов
Расположение каналов : Front: L C R, Side: L R, LFE
Частота : 48,0 КГц
Битовая глубина : 16 бит
Метод сжатия : С потерями
Размер потока : 444 Мбайт (6%)
Заголовок : AVO - Гаврилов
Язык : Russian
Default : Нет
Forced : Нет
Аудио #3
Идентификатор : 4
Формат : AC-3
Формат/Информация : Audio Coding 3
Расширение режима : CM (complete main)
Параметр Endianness формата : Big
Идентификатор кодека : A_AC3
Продолжительность : 2 ч. 18 м.
Вид битрейта : Постоянный
Битрейт : 192 Кбит/сек
Каналы : 2 канала
Расположение каналов : Front: L R
Частота : 48,0 КГц
Битовая глубина : 16 бит
Метод сжатия : С потерями
Размер потока : 190 Мбайт (3%)
Заголовок : AVO - Володарский
Язык : Russian
Default : Нет
Forced : Нет
Аудио #4
Идентификатор : 5
Формат : AC-3
Формат/Информация : Audio Coding 3
Расширение режима : CM (complete main)
Параметр Endianness формата : Big
Идентификатор кодека : A_AC3
Продолжительность : 2 ч. 18 м.
Вид битрейта : Постоянный
Битрейт : 640 Кбит/сек
Каналы : 6 каналов
Расположение каналов : Front: L C R, Side: L R, LFE
Частота : 48,0 КГц
Битовая глубина : 16 бит
Метод сжатия : С потерями
Размер потока : 634 Мбайт (9%)
Язык : English
Default : Нет
Forced : Нет
Текст #1
Идентификатор : 6
Формат : UTF-8
Идентификатор кодека : S_TEXT/UTF8
Идентификатор кодека/Информация : UTF-8 Plain Text
Язык : English
Default : Нет
Forced : Нет
Текст #2
Идентификатор : 7
Формат : UTF-8
Идентификатор кодека : S_TEXT/UTF8
Идентификатор кодека/Информация : UTF-8 Plain Text
Заголовок : SDH
Язык : English
Default : Нет
Forced : Нет
Меню
00:00:00.000 : :00:00:00.000
00:09:56.095 : :00:09:56.095
00:17:44.146 : :00:17:44.146
00:24:49.488 : :00:24:49.488
00:31:56.414 : :00:31:56.414
00:39:40.295 : :00:39:40.295
00:49:30.634 : :00:49:30.634
00:57:50.926 : :00:57:50.926
01:08:36.529 : :01:08:36.529
01:15:29.275 : :01:15:29.275
01:24:35.195 : :01:24:35.195
01:32:53.485 : :01:32:53.485
01:42:20.384 : :01:42:20.384
01:51:25.220 : :01:51:25.220
01:57:30.001 : :01:57:30.001
02:08:57.188 : :02:08:57.188
Скриншоты
Скачать

Скачать торрент!

Как скачивать? · Что такое торрент? · Рейтинг и ограничения

Сайт не распространяет и не хранит электронные версии произведений, а лишь предоставляет доступ к создаваемому пользователями каталогу ссылок на торрент-файлы, которые содержат только списки хеш-сумм

[Профиль] [ЛС]
Показать сообщения:    
Ответить на тему

Текущее время: Сегодня 20:31

Часовой пояс: GMT + 4



Вы не можете начинать темы
Вы не можете отвечать на сообщения
Вы не можете редактировать свои сообщения
Вы не можете удалять свои сообщения
Вы не можете голосовать в опросах
Вы не можете прикреплять файлы к сообщениям
Вы не можете скачивать файлы