По волчьим законам / Animal Kingdom (Дэвид Мишо / David Michod) [2010, Австралия, триллер, драма, криминал, BDRip 720p] MVO (R5) + Sub Rus + Original Eng

Ответить на тему
 
Автор Сообщение

user ®

Стаж: 7 лет 7 месяцев

Сообщений: 20008

Пост Пост: #1 от 12-Авг-2014 05:00

[Цитировать]

По волчьим законам
Animal Kingdom

Страна: Австралия
Жанр: триллер, драма, криминал
Год выпуска: 2010
Продолжительность: 01:53:11
Перевод: Профессиональный (многоголосый закадровый) R5
Cубтитры: русские, английские
Оригинальная аудиодорожка: английский
Режиссер: Дэвид Мишо / David Michod
В ролях: Бен Мендельсон, Джеймс Фрешвилл, Гай Пирс, Джоэл Эдгертон, Джеки Уивер, Люк Форд, Салливан Степлтон, Дэниэл Уилли, Энтони Хэйес, Мирра Фолкс
Описание: Криминальная драма о войне подпольных группировок Мельбурна и полиции. В центре истории семнадцатилетний парень Джошуа из преступной семьи, которого пытается спасти от опасностей мира криминала детектив Леки. Джошуа предстоит выбрать свое место в царстве зверей и понять, что для выживания ему необходимо действовать по собственным правилам.

Сэмпл: http://sendfile.su/1010175
Тип релиза: BDRip 720p[BDRemux HDCLUB]
Контейнер: MKV
Видео: AVC, 1280 x 544 (2,35:1), 5099 kbps, 23,976 fps, 0,305 bpp
Аудио: 48 kHz, AC3 Dolby Digital, 3/2 (L,C,R,l,r) + LFE ch, ~640 kbps, 16 bit
Аудио 2: 48 kHz, AC3 Dolby Digital, 3/2 (L,C,R,l,r) + LFE ch, ~640 kbps, 16 bit
Формат субтитров: softsub (SRT)
MediaInfo
Уникальный идентификатор : 228980605080812381367941936178173235949 (0xAC440F766F054E839A5A7CE45D96D2ED)
Полное имя : F:\Films\Animal\Animal_kkv77.mkv
Формат : Matroska
Версия формата : Version 2
Размер файла : 5,04 Гбайт
Продолжительность : 1 ч. 53 м.
Общий поток : 6374 Кбит/сек
Дата кодирования : UTC 2014-08-10 14:15:16
Программа кодирования : mkvmerge v6.9.1 ('Blue Panther') 32bit built on Apr 18 2014 18:15:44
Библиотека кодирования : libebml v1.3.0 + libmatroska v1.4.1
Видео
Идентификатор : 1
Формат : AVC
Формат/Информация : Advanced Video Codec
Профиль формата : High@L4.1
Параметр CABAC формата : Да
Параметр ReFrames формата : 8 кадров
Идентификатор кодека : V_MPEG4/ISO/AVC
Продолжительность : 1 ч. 53 м.
Битрейт : 5099 Кбит/сек
Ширина : 1280 пикселей
Высота : 544 пикселя
Соотношение сторон : 2,35:1
Режим частоты кадров : Постоянный
Частота кадров : 23,976 кадра/сек
Цветовое пространство : YUV
Субдискретизация насыщенности : 4:2:0
Битовая глубина : 8 бит
Тип развёртки : Прогрессивная
Бит/(Пиксели*Кадры) : 0.305
Размер потока : 3,93 Гбайт (78%)
Библиотека кодирования : x264 core 138 r2358 9e941d1
Настройки программы : cabac=1 / ref=8 / deblock=1:-2:-1 / analyse=0x3:0x133 / me=umh / subme=9 / psy=1 / psy_rd=1.00:0.05 / mixed_ref=0 / me_range=32 / chroma_me=1 / trellis=2 / 8x8dct=1 / cqm=0 / deadzone=21,11 / fast_pskip=0 / chroma_qp_offset=-3 / threads=4 / lookahead_threads=1 / sliced_threads=0 / nr=0 / decimate=0 / interlaced=0 / bluray_compat=0 / constrained_intra=0 / bframes=12 / b_pyramid=2 / b_adapt=2 / b_bias=0 / direct=1 / weightb=1 / open_gop=0 / weightp=2 / keyint=240 / keyint_min=23 / scenecut=40 / intra_refresh=0 / rc=2pass / mbtree=0 / bitrate=5099 / ratetol=1.0 / qcomp=0.60 / qpmin=10 / qpmax=69 / qpstep=4 / cplxblur=20.0 / qblur=0.5 / ip_ratio=1.40 / pb_ratio=1.30 / aq=1:1.00
Язык : English
Default : Да
Forced : Нет
Аудио #1
Идентификатор : 2
Формат : AC-3
Формат/Информация : Audio Coding 3
Расширение режима : CM (complete main)
Параметр Endianness формата : Big
Идентификатор кодека : A_AC3
Продолжительность : 1 ч. 53 м.
Вид битрейта : Постоянный
Битрейт : 640 Кбит/сек
Каналы : 6 каналов
Расположение каналов : Front: L C R, Side: L R, LFE
Частота : 48,0 КГц
Битовая глубина : 16 бит
Метод сжатия : С потерями
Размер потока : 518 Мбайт (10%)
Заголовок : Профессиональный (многоголосый закадровый) R5
Язык : Russian
Default : Да
Forced : Нет
Аудио #2
Идентификатор : 3
Формат : AC-3
Формат/Информация : Audio Coding 3
Расширение режима : CM (complete main)
Параметр Endianness формата : Big
Идентификатор кодека : A_AC3
Продолжительность : 1 ч. 53 м.
Вид битрейта : Постоянный
Битрейт : 640 Кбит/сек
Каналы : 6 каналов
Расположение каналов : Front: L C R, Side: L R, LFE
Частота : 48,0 КГц
Битовая глубина : 16 бит
Метод сжатия : С потерями
Размер потока : 518 Мбайт (10%)
Заголовок : английский
Язык : English
Default : Нет
Forced : Нет
Текст #1
Идентификатор : 4
Формат : UTF-8
Идентификатор кодека : S_TEXT/UTF8
Идентификатор кодека/Информация : UTF-8 Plain Text
Заголовок : русские
Язык : Russian
Default : Нет
Forced : Нет
Текст #2
Идентификатор : 5
Формат : UTF-8
Идентификатор кодека : S_TEXT/UTF8
Идентификатор кодека/Информация : UTF-8 Plain Text
Заголовок : английские
Язык : English
Default : Нет
Forced : Нет
Меню
00:00:00.000 : en:00:00:00.000
00:05:57.482 : en:00:05:57.482
00:13:03.657 : en:00:13:03.657
00:21:11.228 : en:00:21:11.228
00:29:32.312 : en:00:29:32.312
00:34:48.503 : en:00:34:48.503
00:41:37.203 : en:00:41:37.203
00:49:29.967 : en:00:49:29.967
00:58:14.991 : en:00:58:14.991
01:03:50.535 : en:01:03:50.535
01:08:58.884 : en:01:08:58.884
01:15:42.037 : en:01:15:42.037
01:24:50.835 : en:01:24:50.835
01:32:47.228 : en:01:32:47.228
01:37:56.620 : en:01:37:56.620
01:46:03.315 : en:01:46:03.315
x264 log
avs [info]: 1280x544p 1:1 @ 24000/1001 fps (cfr)
x264 [info]: using SAR=1/1
x264 [info]: profile High, level 4.1
x264 [info]: frame I:1025 Avg QP:15.94 size:101858
x264 [info]: frame P:30756 Avg QP:17.18 size: 51253
x264 [info]: frame B:131035 Avg QP:19.03 size: 20160
x264 [info]: consecutive B-frames: 1.4% 1.8% 4.4% 12.4% 17.4% 36.5% 9.3% 7.5% 3.4% 0.9%
1.3% 2.8% 0.9%
x264 [info]: mb I I16..4: 10.4% 81.0% 8.6%
x264 [info]: mb P I16..4: 0.7% 25.2% 0.9% P16..4: 48.5% 11.9% 8.2% 0.3% 0.1% skip: 4.3%
x264 [info]: mb B I16..4: 0.0% 2.3% 0.0% B16..8: 49.9% 10.1% 3.7% direct: 7.3% skip:26.7%
L0:44.4% L1:49.3% BI: 6.3%
x264 [info]: 8x8 transform intra:93.8% inter:58.1%
x264 [info]: coded y,uvDC,uvAC intra: 97.7% 83.6% 66.8% inter: 39.5% 24.5% 8.0%
x264 [info]: i16 v,h,dc,p: 28% 12% 25% 35%
x264 [info]: i8 v,h,dc,ddl,ddr,vr,hd,vl,hu: 9% 7% 16% 10% 13% 12% 12% 11% 12%
x264 [info]: i4 v,h,dc,ddl,ddr,vr,hd,vl,hu: 10% 6% 3% 10% 16% 16% 14% 12% 12%
x264 [info]: i8c dc,h,v,p: 46% 22% 18% 15%
x264 [info]: Weighted P-Frames: Y:6.4% UV:2.8%
x264 [info]: ref P L0: 38.6% 5.8% 21.7% 8.4% 9.0% 5.6% 6.6% 3.9% 0.4% 0.0%
x264 [info]: ref B L0: 64.7% 15.7% 8.1% 5.2% 3.7% 2.0% 0.7%
x264 [info]: ref B L1: 90.6% 9.4%
x264 [info]: kb/s:5092.11
encoded 162816 frames, 1.49 fps, 5092.11 kb/s
Скриншоты Сравнения с исходником Возрастные ограничения
16+ : зрителям, достигшим 16 лет
Рейтинг МРАА: лицам до 17 лет обязательно присутствие взрослого
Награды и номинации
2010Большой приз жюри кинофестиваля Сандэнс в категории «мировое кино — драма»
20109 премий Австралийского киноинститута: лучший фильм (Лиз Уоттс), лучший режиссер (Дэвид Мишо), лучший оригинальный сценарий (Дэвид Мишо), лучший актер (Бен Мендельсон), лучшая актриса (Джеки Уивер), лучший актер второго плана (Джоэл Эджертон), лучший монтаж (Люк Дулан), лучшая оригинальная музыка (Сэм Петти, Энтони Партос), приз читателей News Limited (Лиз Уоттс)
2010премия Национального совета кинокритиков США за лучшую женскую роль второго плана (Джеки Уивер)
2010приз за лучший сценарий Стокгольмского кинофестиваля (Дэвид Мишо)
2011номинация на премию «Оскар» за лучшую женскую роль второго плана (Джеки Уивер)
2011номинация на премию «Сатурн» за лучшую женскую роль второго плана (Джеки Уивер)
2011номинация на премию «Золотой глобус» за лучшую женскую роль второго плана (Джеки Уивер)
2011номинация на Премию британского независимого кино за лучший зарубежный независимый фильм
Скачать

Скачать торрент!

Как скачивать? · Что такое торрент? · Рейтинг и ограничения

Сайт не распространяет и не хранит электронные версии произведений, а лишь предоставляет доступ к создаваемому пользователями каталогу ссылок на торрент-файлы, которые содержат только списки хеш-сумм

[Профиль] [ЛС]
Показать сообщения:    
Ответить на тему

Текущее время: Сегодня 14:14

Часовой пояс: GMT + 4



Вы не можете начинать темы
Вы не можете отвечать на сообщения
Вы не можете редактировать свои сообщения
Вы не можете удалять свои сообщения
Вы не можете голосовать в опросах
Вы не можете прикреплять файлы к сообщениям
Вы не можете скачивать файлы