Отпуск: Солдат всегда на службе / Солдат / Holiday / Holiday: A Soldier Is Never Off Duty (А. Р. Муругадосс / A. R. Murugadoss) [2014, Индия, Боевик, мелодрама, триллер, DVDRip] MVO (ICG) + Original + Sub Rus

Ответить на тему
 
Автор Сообщение

user ®

Стаж: 13 лет

Сообщений: 15070

Пост Пост: #1 от 11-Авг-2014 01:55

[Цитировать]

Отпуск: Солдат всегда на службе / Holiday
-Страна: Индия
Жанр: Боевик, триллер, криминал
Год выпуска: 2014
Продолжительность: 02:40:44-Перевод: Любительский (многоголосый закадровый) - ICG
Cубтитры: Pусские (полные, песни)--Режиссер: Виджай Кришна Ачария / Vijay Krishna Acharya-В ролях: Акшай Кумар, Сонакши Синха, Говинда, Дипендра Шарма, Сумит Рагхван, Абхай Шукла, Фредди Дарувала, Анчал Сингх--Описание: Солдат индийской армии Вират Бакши приезжает домой в свой отпуск. Родители хотят его сразу женить. Но сердце доблестного солдата пока не готово к любви, поэтому он сосредотачивается на помощи своему другу младшему сержанту Мукунду с расследованиями некоторых дел. И в один прекрасный день Вират сталкивается с огромной террористической сетью "спящих ячеек". Отпуск превращается в войну!-- | --Качество видео: DVDRip
Формат видео: AVI-Видео: XviD, 720x304, 1 261 Кбит/с, 23.976 fps,
Аудио #1: AC3, 6 ch, 448 Кбит/с [Rus ]
Аудио #2: AC3, 2 ch, 224 Кбит/с [Hindi]
Формат субтитров: softsub (SRT)-Доп. информация:
  • о субтитрах: внешние: #полные, #песни-Совместный релиз и Bollywoodtime по заказу (спасибо!)
    Перевод и редакция: Tonyvika (спасибо!)-
    -
    -Сэмпл / Sample-- -
    -
    Скриншот с названием:

-
Скриншоты:
-
MI
Общее
Полное имя : C:\INDIYA\[Релизы]\Holiday.2014.DVDRip.Rus.Original.ICG.BT.GF.avi
Формат : AVI
Формат/Информация : Audio Video Interleave
Профиль формата : OpenDML
Размер файла : 2,19 Гбайт
Продолжительность : 2 ч. 40 м.
Общий поток : 1951 Кбит/сек
Программа кодирования : VirtualDubModRus 1.5.10.2 (build 2542/release)
Библиотека кодирования : VirtualDubMod build 2542/release
Видео
Идентификатор : 0
Формат : MPEG-4 Visual
Профиль формата : Advanced Simple@L5
Параметр BVOP формата : 1
Параметр QPel формата : Нет
Параметр GMC формата : Без точки перехода
Параметр матрицы формата : Default (MPEG)
Идентификатор кодека : XVID
Идентификатор кодека/Подсказка : XviD
Продолжительность : 2 ч. 40 м.
Битрейт : 1261 Кбит/сек
Ширина : 720 пикселей
Высота : 304 пикселя
Соотношение сторон : 2,35:1
Частота кадров : 23,976 кадра/сек
Цветовое пространство : YUV
Субдискретизация насыщенности : 4:2:0
Битовая глубина : 8 бит
Тип развёртки : Прогрессивная
Метод сжатия : С потерями
Бит/(Пиксели*Кадры) : 0.240
Размер потока : 1,42 Гбайт (65%)
Библиотека кодирования : XviD 64
Аудио #1
Идентификатор : 1
Формат : AC-3
Формат/Информация : Audio Coding 3
Расширение режима : CM (complete main)
Параметр Endianness формата : Big
Идентификатор кодека : 2000
Продолжительность : 2 ч. 40 м.
Вид битрейта : Постоянный
Битрейт : 448 Кбит/сек
Каналы : 6 каналов
Расположение каналов : Front: L C R, Side: L R, LFE
Частота : 48,0 КГц
Битовая глубина : 16 бит
Метод сжатия : С потерями
Размер потока : 515 Мбайт (23%)
Выравнивание : Разделение по промежуткам
Продолжительность промежутка : 42 мс. (1,00 видеокадр)
Время предзагрузки промежутка : 500 мс.
Аудио #2
Идентификатор : 2
Формат : AC-3
Формат/Информация : Audio Coding 3
Расширение режима : CM (complete main)
Параметр Endianness формата : Big
Идентификатор кодека : 2000
Продолжительность : 2 ч. 40 м.
Вид битрейта : Постоянный
Битрейт : 224 Кбит/сек
Каналы : 2 канала
Расположение каналов : Front: L R
Частота : 48,0 КГц
Битовая глубина : 16 бит
Метод сжатия : С потерями
Размер потока : 258 Мбайт (11%)
Выравнивание : Соединение по промежуткам
Продолжительность промежутка : 42 мс. (1,00 видеокадр)
Время предзагрузки промежутка : 512 мс.

-
-
Скачать

Скачать торрент! Отпуск: Солдат всегда на службе / Солдат / Holiday / Holiday: A Soldier Is Never Off Duty (А. Р. Муругадосс / A. R. Murugadoss) [2014, Индия, Боевик, мелодрама, триллер, DVDRip] MVO (ICG) + Original + Sub Rus

Как скачивать? · Что такое торрент? · Рейтинг и ограничения

Сайт не распространяет и не хранит электронные версии произведений, а лишь предоставляет доступ к создаваемому пользователями каталогу ссылок на торрент-файлы, которые содержат только списки хеш-сумм

[Профиль] [ЛС]
Показать сообщения:    
Ответить на тему

Текущее время: Сегодня 16:11

Часовой пояс: GMT + 4



Вы не можете начинать темы
Вы не можете отвечать на сообщения
Вы не можете редактировать свои сообщения
Вы не можете удалять свои сообщения
Вы не можете голосовать в опросах
Вы не можете прикреплять файлы к сообщениям
Вы не можете скачивать файлы