Солдат / Отпуск: Солдат всегда на службе / Holiday / Holiday: A Soldier Is Never Off Duty (А. Р. Муругадосс / A. R. Murugadoss) [2014, Индия, боевик, триллер, мелодрама, HDRip] MVO (SoulStudioTV & datynet & KhushiKhiladi)

Ответить на тему
 
Автор Сообщение

user ®

Стаж: 12 лет

Сообщений: 15092

Пост Пост: #1 от 10-Авг-2014 22:45

[Цитировать]

Солдат / Отпуск: Солдат всегда на службе / Holiday / Holiday: A Soldier Is Never Off Duty
Страна: Индия
Жанр: боевик, триллер, мелодрама
Год выпуска: 2014
Продолжительность: 02:40:45
Перевод: Любительский (многоголосый закадровый) SoulStudioTV & datynet & KhushiKhiladi
Оригинальная аудиодорожка: нет
Режиссер: А. Р. Муругадосс / A. R. Murugadoss
В ролях: Акшай Кумар, Сонакши Синха, Говинда, Анчал Сингх, Дипендра Шарма, Aackruti Nagpal, Абхай Шукла, Фредди Дарувала, Сумит Рагхван, А. Шах Аашин
Описание: Бойцы индийской армии приезжают домой на побывку. После тягот службы они рады встретить родных и близких. Семья Вирата Бакши сразу же увозит его на смотрины девушки, и казалось бы, счастье мирной жизни совсем рядом. Однако этой мирной жизни угрожают террористы, а солдат даже во время отпуска исполняет свой долг. Для солдата нет большей чести, чем уничтожить врага, грозящего смертью тысячам людей, даже ценой собственной жизни. И Вирату предстоит принять нелёгкое решение...
Доп. информация:
Роли озвучивали: Мадлена Согоян, Элайна Мэллори, Selena, datynet
Перевод на русский язык: Янина и Селена
Imdb
Кинопоиск
Сэмпл: http://multi-up.com/991675
Качество видео: HDRip
Формат видео: AVI
Видео: XVID, 720x304, соотношение сторон 2,35:1, 23,976 кадра/сек, 1484 Кбит/сек
Аудио: MP3, 44,1 КГц, 256 Кбит/сек, 2 канала
MediaInfo
Общее
Полное имя : F:\shared\Holiday.2014.avi
Формат : AVI
Формат/Информация : Audio Video Interleave
Размер файла : 1,96 Гбайт
Продолжительность : 2 ч. 40 м.
Общий поток : 1749 Кбит/сек
Видео
Идентификатор : 0
Формат : MPEG-4 Visual
Профиль формата : Advanced Simple@L5
Параметр BVOP формата : 2
Параметр QPel формата : Нет
Параметр GMC формата : Без точки перехода
Параметр матрицы формата : Default (MPEG)
Идентификатор кодека : XVID
Идентификатор кодека/Подсказка : XviD
Продолжительность : 2 ч. 40 м.
Битрейт : 1483 Кбит/сек
Ширина : 720 пикселей
Высота : 304 пикселя
Соотношение сторон : 2,35:1
Частота кадров : 23,976 кадра/сек
Цветовое пространство : YUV
Субдискретизация насыщенности : 4:2:0
Битовая глубина : 8 бит
Тип развёртки : Прогрессивная
Метод сжатия : С потерями
Бит/(Пиксели*Кадры) : 0.283
Размер потока : 1,67 Гбайт (85%)
Библиотека кодирования : XviD 1.2.1 (UTC 2008-12-04)
Аудио
Идентификатор : 1
Формат : MPEG Audio
Версия формата : Version 1
Профиль формата : Layer 3
Идентификатор кодека : 55
Идентификатор кодека/Подсказка : MP3
Продолжительность : 2 ч. 40 м.
Вид битрейта : Постоянный
Битрейт : 256 Кбит/сек
Каналы : 2 канала
Частота : 44,1 КГц
Метод сжатия : С потерями
Размер потока : 294 Мбайт (15%)
Выравнивание : Разделение по промежуткам
Продолжительность промежутка : 42 мс. (1,00 видеокадр)
Время предзагрузки промежутка : 500 мс.
Скриншот c названием фильма Скриншоты
Скачать

Скачать торрент! Солдат / Отпуск: Солдат всегда на службе / Holiday / Holiday: A Soldier Is Never Off Duty (А. Р. Муругадосс / A. R. Murugadoss) [2014, Индия, боевик, триллер, мелодрама, HDRip] MVO (SoulStudioTV & datynet & KhushiKhiladi)

Как скачивать? · Что такое торрент? · Рейтинг и ограничения

Сайт не распространяет и не хранит электронные версии произведений, а лишь предоставляет доступ к создаваемому пользователями каталогу ссылок на торрент-файлы, которые содержат только списки хеш-сумм

[Профиль] [ЛС]
Показать сообщения:    
Ответить на тему

Текущее время: Сегодня 18:05

Часовой пояс: GMT + 4



Вы не можете начинать темы
Вы не можете отвечать на сообщения
Вы не можете редактировать свои сообщения
Вы не можете удалять свои сообщения
Вы не можете голосовать в опросах
Вы не можете прикреплять файлы к сообщениям
Вы не можете скачивать файлы