Пурнами / Pournami (Прабху Дева / Prabhu Deva) [2006, Индия, Мелодрама, DVDRip] MVO (Red Media)

Ответить на тему
 
Автор Сообщение

user ®

Стаж: 12 лет

Сообщений: 15092

Пост Пост: #1 от 10-Авг-2014 22:45

[Цитировать]

Пурнами / Pournami
Страна: Индия
Жанр: Мелодрама
Год выпуска: 2006
Продолжительность: 02:40:26
Перевод: Профессиональный (многоголосый закадровый) Red Media
Cубтитры: нет
Режиссер: Прабху Дева / Prabhu Deva
В ролях: Прабхас, Триша Кришнан, Чарми, Арчана, Таникелла Бхарани, Брахмаджи, Чандрамохан, Рахул Дев, Гита, Шриниваса Рао Кота
Описание: Давным-давно на деревню обрушилась засуха. Чтобы умилостивить богов женщина танцевала в храме Бога Шивы 7 дней и 7 ночей. Покоренные ее даром, боги послали на землю дождь. С тех пор каждые 12 лет женщины из этой семьи танцевали в том же храме на празднике Pushkara Pournami, преподнося свой танец Богу Шиве. Прошло много лет и теперь, в начале 1960-х годов подошла очередь девушки по имени Пурнами танцевать в храме. Но за несколько месяцев до праздника она таинственно исчезает. В деревню приезжает незнакомец Шивакесава, который становится близким другом Чандракалы - младшей сестры Пурнами. Местный раджа желает обладать Чандракалой. Шивакесава спасает девушку и убеждает ее отца, что она должна танцевать в назначенный день вместо Пурнами. Но кто такой Шивакесава? Просто незнакомец или его темное прошлое связано с исчезновением Пурнами?
Доп. информация: Исходник [url=http://***/forum/viewtopic.php?t=3874173]DVD-9[/url] (СПАСИБО! Gahan Dave)
Сэмпл: http://multi-up.com/991676
Качество видео: DVDRip
Формат видео: AVI
Видео: XviD build 50, 672x304 (2.21:1), 23.976 fps, 1168 kbps avg
Аудио: MPEG Layer 3, 48 kHz, 2/0 (L,R) ch, 128.00 kbps avg
MediaInfo
General
Complete name : D:\Purnami.2006.XviD.DVDRip-Dego.avi
Format : AVI
Format/Info : Audio Video Interleave
File size : 1.46 GiB
Duration : 2h 40mn
Overall bit rate : 1 306 Kbps
Writing application : VirtualDubMod 1.5.10.2 (build 2540/release)
Writing library : VirtualDubMod build 2540/release
Video
ID : 0
Format : MPEG-4 Visual
Format profile : AdvancedSimple@L5
Format settings, BVOP : Yes
Format settings, QPel : No
Format settings, GMC : No warppoints
Format settings, Matrix : Custom
Codec ID : XVID
Codec ID/Hint : XviD
Duration : 2h 40mn
Bit rate : 1 168 Kbps
Width : 672 pixels
Height : 304 pixels
Display aspect ratio : 2.2
Frame rate : 23.976 fps
Resolution : 24 bits
Colorimetry : 4:2:0
Scan type : Progressive
Bits/(Pixel*Frame) : 0.239
Stream size : 1.31 GiB (89%)
Writing library : XviD 1.2.1 (UTC 2008-12-04)
Audio
ID : 1
Format : MPEG Audio
Format version : Version 1
Format profile : Layer 3
Codec ID : 55
Codec ID/Hint : MP3
Duration : 2h 40mn
Bit rate mode : Constant
Bit rate : 128 Kbps
Channel(s) : 2 channels
Sampling rate : 48.0 KHz
Resolution : 16 bits
Stream size : 147 MiB (10%)
Alignment : Aligned on interleaves
Interleave, duration : 42 ms (1.00 video frame)
Interleave, preload duration : 504 ms
Writing library : LAME3.98r
Encoding settings : -m s -V 4 -q 2 -lowpass 17 -b 128
Скриншоты Сравнения
[url=http://***/forum/viewtopic.php?t=3654157]http://***/forum/viewtopic.php?t=3654157[/url] => http://screenshotcomparison.com/comparison/87280/picture:3
Перевод тот же.
Скачать

Скачать торрент! Пурнами / Pournami (Прабху Дева / Prabhu Deva) [2006, Индия, Мелодрама, DVDRip] MVO (Red Media)

Как скачивать? · Что такое торрент? · Рейтинг и ограничения

Сайт не распространяет и не хранит электронные версии произведений, а лишь предоставляет доступ к создаваемому пользователями каталогу ссылок на торрент-файлы, которые содержат только списки хеш-сумм

[Профиль] [ЛС]
Показать сообщения:    
Ответить на тему

Текущее время: Сегодня 18:47

Часовой пояс: GMT + 4



Вы не можете начинать темы
Вы не можете отвечать на сообщения
Вы не можете редактировать свои сообщения
Вы не можете удалять свои сообщения
Вы не можете голосовать в опросах
Вы не можете прикреплять файлы к сообщениям
Вы не можете скачивать файлы