Морпехи 2: поле огня / Морпехи 2: на линии огня / Jarhead 2: field of fire (Дон Майкл Пол / Don Michael Paul) [2014, США, боевик, военный, DVDRip] VO (Andi)

Ответить на тему
 
Автор Сообщение

user ®

Стаж: 7 лет 7 месяцев

Сообщений: 20008

Пост Пост: #1 от 10-Авг-2014 22:45

[Цитировать]

Морпехи 2: поле огня / Морпехи 2: на линии огня / Jarhead 2: field of fire
Страна: США
Жанр: боевик, военный
Год выпуска: 2014
Продолжительность: 01:42:30
Перевод: Одноголосый закадровый ([url=http://***/forum/profile.php?mode=viewprofile&u=6584813]Andi[/url])
Cубтитры: нет
Режиссер: Дон Майкл Пол / Don Michael Paul
В ролях: Джош Келли, Кесси Лэйтон, Джейсон Вонг, Джесси Гарсиа, Стивен Лэнг,
Описание: Отряд морпехов получает задание доставить груз боеприпасов на удаленный американский блокпост, затерянный в глуши Афганистана, на территории, контролируемой движением Талибан...
Доп. информация: Классический "военный боевик". Американцы любят снимать такие фильмы, а мы любим их смотреть.
Денег на пиротехнику и декорации не жалели, а для такого фильма - это самое главное
Над релизом работали:
перевод М. Васильев
озвучка Andi
Сэмпл: https://yadi.sk/i/nrbEzr9gZMTEy
Качество видео: DVDRip
Формат видео: AVI
Видео: 1458 Kbps, 720x304 (2.35:1) 23 976 fps MPEG 4 XviD
Аудио: 448 Kbps, 48.0 KHz, 16 bits, 6 ch AC 3
MediaInfo
General
Complete name : C:\Users\Владелец\Desktop\морпехи.avi
Format : AVI
Format/Info : Audio Video Interleave
File size : 1.37 GiB
Duration : 1h 42mn
Overall bit rate : 1 915 Kbps
Video
ID : 0
Format : MPEG-4 Visual
Format profile : Advanced Simple@L5
Format settings, BVOP : 4
Format settings, QPel : No
Format settings, GMC : No warppoints
Format settings, Matrix : Default (H.263)
Codec ID : XVID
Codec ID/Hint : XviD
Duration : 1h 42mn
Bit rate : 1 458 Kbps
Width : 720 pixels
Height : 304 pixels
Display aspect ratio : 2.35:1
Frame rate : 23.976 fps
Color space : YUV
Chroma subsampling : 4:2:0
Bit depth : 8 bits
Scan type : Progressive
Compression mode : Lossy
Bits/(Pixel*Frame) : 0.278
Stream size : 1.04 GiB (76%)
Writing library : XviD 65
Audio
ID : 1
Format : AC-3
Format/Info : Audio Coding 3
Mode extension : CM (complete main)
Format settings, Endianness : Big
Codec ID : 2000
Duration : 1h 42mn
Bit rate mode : Constant
Bit rate : 448 Kbps
Channel(s) : 6 channels
Channel positions : Front: L C R, Side: L R, LFE
Sampling rate : 48.0 KHz
Bit depth : 16 bits
Compression mode : Lossy
Stream size : 328 MiB (23%)
Alignment : Split accross interleaves
Interleave, duration : 42 ms (1.00 video frame)
Interleave, preload duration : 500 ms
Скриншот c названием фильма Скриншоты
Скачать

Скачать торрент!

Как скачивать? · Что такое торрент? · Рейтинг и ограничения

Сайт не распространяет и не хранит электронные версии произведений, а лишь предоставляет доступ к создаваемому пользователями каталогу ссылок на торрент-файлы, которые содержат только списки хеш-сумм

[Профиль] [ЛС]
Показать сообщения:    
Ответить на тему

Текущее время: Сегодня 15:38

Часовой пояс: GMT + 4



Вы не можете начинать темы
Вы не можете отвечать на сообщения
Вы не можете редактировать свои сообщения
Вы не можете удалять свои сообщения
Вы не можете голосовать в опросах
Вы не можете прикреплять файлы к сообщениям
Вы не можете скачивать файлы