Стена / Deewaar (Яш Чопра / Yash Chopra) [1975, Индия, Драма, HDRip] MVO (Формат АВ)

Ответить на тему
 
Автор Сообщение

user ®

Стаж: 12 лет

Сообщений: 15092

Пост Пост: #1 от 10-Авг-2014 00:05

[Цитировать]

Стена / Deewaar
Страна: Индия
Жанр: Драма
Год выпуска: 1975
Продолжительность: 02:52:36-Перевод: Профессиональный (многоголосый закадровый) - Формат АВ
Cубтитры: Нет--Режиссер: Яш Чопра / Yash Chopra-В ролях: Амитабх Баччан, Шаши Капур, Ниту Сингх, Парвин Баби, Нирупа Рой, Мадан Пури и др.--Описание: Несмотря на все тяготы жизни, Сумитра Деви воспитывает с любовью и нежностью двух сыновей. Её мужа Ананда Бабу - профсоюзного активиста, оклеветали, и он умер, не вынеся позора. Долгие годы на жене и детях висело клеймо «предателя». Дети вырастают и сами выбирают свои дороги. Рави Варма становится инспектором полиции, Виджай - гангстером. Полоса отчуждения пролегла между ними, но это не помешает им найти виновников и отомстить за гибель отца...- | -Качество видео: HDRip
Источник: BDRip 720p
Формат видео: AVI-Видео: 640x480 (1.33:1), 24.000 fps, XviD build 50 ~1533 kbps avg, 0.21 bit/pixel
Аудио: 48 kHz, AC3 Dolby Digital, 2/0 (L,R) ch, ~192 kbps-Риппер, oцифровка, синхрон. аудио: soso4eg-Сэмпл / Sample- -
-
Скриншоты
-
MediaInfo
Общее
Полное имя : C:\INDIYA\[Релизы]\STENA.1975.HDRip.XviD-soso4eg.avi
Формат : AVI
Формат/Информация : Audio Video Interleave
Профиль формата : OpenDML
Размер файла : 2,09 Гбайт
Продолжительность : 2 ч. 52 м.
Общий поток : 1732 Кбит/сек
Название фильма : Deewaar.1975.HDRip.XviD-soso4eg
Режиссёр : soso4eg
Программа кодирования : VirtualDubMod 1.5.10.3 | www.virtualdub-fr.org || (build 2550/release)
Правообладатель : специально для BitTorrent трекер *** (ex torrents.ru)
Примечание : пер. Формат АВ
Видео
Идентификатор : 0
Формат : MPEG-4 Visual
Профиль формата : Advanced Simple@L5
Параметр BVOP формата : 1
Параметр QPel формата : Нет
Параметр GMC формата : Без точки перехода
Параметр матрицы формата : Default (H.263)
Идентификатор кодека : XVID
Идентификатор кодека/Подсказка : XviD
Продолжительность : 2 ч. 52 м.
Битрейт : 1528 Кбит/сек
Ширина : 640 пикселей
Высота : 480 пикселей
Соотношение сторон : 4:3
Частота кадров : 24,000 кадра/сек
Цветовое пространство : YUV
Субдискретизация насыщенности : 4:2:0
Битовая глубина : 8 бит
Тип развёртки : Прогрессивная
Метод сжатия : С потерями
Бит/(Пиксели*Кадры) : 0.207
Размер потока : 1,84 Гбайт (88%)
Библиотека кодирования : XviD 1.2.1 (UTC 2008-12-04)
Аудио
Идентификатор : 1
Формат : AC-3
Формат/Информация : Audio Coding 3
Расширение режима : CM (complete main)
Параметр Endianness формата : Big
Идентификатор кодека : 2000
Продолжительность : 2 ч. 52 м.
Вид битрейта : Постоянный
Битрейт : 192 Кбит/сек
Каналы : 2 канала
Расположение каналов : Front: L R
Частота : 48,0 КГц
Битовая глубина : 16 бит
Метод сжатия : С потерями
Размер потока : 237 Мбайт (11%)
Выравнивание : Разделение по промежуткам
Продолжительность промежутка : 42 мс. (1,00 видеокадр)
Время предзагрузки промежутка : 500 мс.

-
Сравнение скриншотов
[url=http://***/forum/viewtopic.php?t=616996]http://***/forum/viewtopic.php?t=616996[/url]
http://screenshotcomparison.com/comparison/87008/picture:0
перевод одинаковый
Скачать

Скачать торрент! Стена / Deewaar (Яш Чопра / Yash Chopra) [1975, Индия, Драма, HDRip] MVO (Формат АВ)

Как скачивать? · Что такое торрент? · Рейтинг и ограничения

Сайт не распространяет и не хранит электронные версии произведений, а лишь предоставляет доступ к создаваемому пользователями каталогу ссылок на торрент-файлы, которые содержат только списки хеш-сумм

[Профиль] [ЛС]
Показать сообщения:    
Ответить на тему

Текущее время: Сегодня 07:02

Часовой пояс: GMT + 4



Вы не можете начинать темы
Вы не можете отвечать на сообщения
Вы не можете редактировать свои сообщения
Вы не можете удалять свои сообщения
Вы не можете голосовать в опросах
Вы не можете прикреплять файлы к сообщениям
Вы не можете скачивать файлы