Бесконечный уикенд / Проклятие 13-го числа / Thongsook 13 / Long Weekend (Тавиват Вантха / Taweewat Wantha) [2013, Таиланд, ужасы, DVDRip-AVC] DVO (den904 & DeadSno)

Ответить на тему
 
Автор Сообщение

user ®

Стаж: 13 лет

Сообщений: 15071

Пост Пост: #1 от 08-Авг-2014 16:35

[Цитировать]

Бесконечный уикенд / Проклятие 13-го числа / Thongsook 13 / Long Weekend
Страна: Таиланд
Жанр: ужасы
Год выпуска: 2013
Продолжительность: 01:31:05
Перевод: Любительский (двухголосый закадровый) [2D] - перевод на русский язык [Ворон] работа со звуком [Гуннлауг]
Cубтитры: нет
Оригинальная аудиодорожка: нет
Режиссер: Тавиват Вантха / Taweewat Wantha
В ролях: Натпассара Адуляметхасири, Ачаранат Арияритвикол, Чинавут Индракусин, Шон Жиндакот, Китлапат Корасудрайвон, Бутсарин Ёкпрайпан, Шеранут Юсананда.
Описание: Группа друзей отправляется на уик-энд в пятницу 13-го, чтобы бросить вызов вере в сверхъестественное. Но вскоре они поймут, что с некоторыми вещами не стоит связываться…



скачать СЕМПЛ с multi-up
Качество видео: DVDRip-AVC
Формат видео: MP4
Видео: MPEG-4 AVC, 929 Кбит/с, 720x304
Аудио: AC3, 2 ch, 192 Кбит/с
MediaInfo
X:\Long.Weekend.2013.DVDRip.KOLOBOK.mp4
General
Unique ID : 178711449465507424300183104394404243571 (0x867292BCC78DE1A996DEF1BA66772873)
Complete name : X:\Long.Weekend.2013.DVDRip.KOLOBOK.mp4
Format : Matroska
Format version : Version 2
File size : 745 MiB
Duration : 1h 31mn
Overall bit rate : 1 144 Kbps
Encoded date : UTC 2014-08-07 16:56:31
Writing application : mkvmerge v2.9.7 ('Tenderness') built on Jul 1 2009 18:43:35
Writing library : libebml v0.7.7 + libmatroska v0.8.1
Video #1
ID : 1
Format : AVC
Format/Info : Advanced Video Codec
Format profile : High@L3.0
Format settings, CABAC : Yes
Format settings, ReFrames : 5 frames
Codec ID : V_MPEG4/ISO/AVC
Duration : 1h 31mn
Bit rate : 929 Kbps
Width : 720 pixels
Height : 304 pixels
Display aspect ratio : 2.35:1
Frame rate : 25.000 fps
Color space : YUV
Chroma subsampling : 4:2:0
Bit depth : 8 bits
Scan type : Progressive
Bits/(Pixel*Frame) : 0.170
Stream size : 605 MiB (81%)
Writing library : x264 core 132 r2310 76a5c3a
Encoding settings : cabac=1 / ref=5 / deblock=1:0:0 / analyse=0x3:0x133 / me=umh / subme=9 / psy=1 / psy_rd=1.00:0.00 / mixed_ref=1 / me_range=16 / chroma_me=1 / trellis=1 / 8x8dct=1 / cqm=0 / deadzone=21,11 / fast_pskip=1 / chroma_qp_offset=-2 / threads=12 / lookahead_threads=1 / sliced_threads=0 / nr=0 / decimate=1 / interlaced=0 / bluray_compat=0 / constrained_intra=0 / bframes=5 / b_pyramid=2 / b_adapt=2 / b_bias=0 / direct=3 / weightb=1 / open_gop=0 / weightp=2 / keyint=250 / keyint_min=25 / scenecut=40 / intra_refresh=0 / rc_lookahead=40 / rc=crf / mbtree=1 / crf=16.0 / qcomp=0.60 / qpmin=0 / qpmax=69 / qpstep=4 / ip_ratio=1.40 / aq=1:1.00 / zones=131660,136635,q=36
Color primaries : BT.601-6 525, BT.1358 525, BT.1700 NTSC, SMPTE 170M
Transfer characteristics : BT.601-6 525, BT.601-6 625, BT.1358 525, BT.1358 625, BT.1700 NTSC, SMPTE 170M
Matrix coefficients : BT.601-6 525, BT.1358 525, BT.1700 NTSC, SMPTE 170M
Audio #2
ID : 2
Format : AC-3
Format/Info : Audio Coding 3
Mode extension : CM (complete main)
Codec ID : A_AC3
Duration : 1h 31mn
Bit rate mode : Constant
Bit rate : 192 Kbps
Channel(s) : 2 channels
Channel positions : Front: L R
Sampling rate : 48.0 KHz
Bit depth : 16 bits
Compression mode : Lossy
Stream size : 125 MiB (17%)
Скриншот c названием фильма Скриншоты Релиз от:
Скачать

Скачать торрент! Бесконечный уикенд / Проклятие 13-го числа / Thongsook 13 / Long Weekend (Тавиват Вантха / Taweewat Wantha) [2013, Таиланд, ужасы, DVDRip-AVC] DVO (den904 & DeadSno)

Как скачивать? · Что такое торрент? · Рейтинг и ограничения

Сайт не распространяет и не хранит электронные версии произведений, а лишь предоставляет доступ к создаваемому пользователями каталогу ссылок на торрент-файлы, которые содержат только списки хеш-сумм

[Профиль] [ЛС]
Показать сообщения:    
Ответить на тему

Текущее время: Сегодня 15:18

Часовой пояс: GMT + 4



Вы не можете начинать темы
Вы не можете отвечать на сообщения
Вы не можете редактировать свои сообщения
Вы не можете удалять свои сообщения
Вы не можете голосовать в опросах
Вы не можете прикреплять файлы к сообщениям
Вы не можете скачивать файлы