Золото (Андрей Мармонтов) [2012, драма, DVDRip]

Ответить на тему
 
Автор Сообщение

user ®

Стаж: 7 лет 7 месяцев

Сообщений: 20008

Пост Пост: #1 от 08-Авг-2014 16:35

[Цитировать]

Золото-«Проиграл - плати»- Жанр: драма
Год выпуска: 2012
Продолжительность: 01:50:11-Режиссёр: Андрей Мармонтов
В ролях: Сергей Безруков, Ирина Скобцева, Андрей Мерзликин, Михаил Пореченков, Анна Герман, Максим Шибаев, Любовь Куликова, Владимир Кабалин, Алексей Шемес, Дарья Михайлова.-Описание: Судебный пристав предъявляет семье Брагиных иск по карточным долгам пропавшего брата. Для расчётов — два месяца. Или Гордея, как брата должника ждёт арест и тюрьма. Выход один — бросить всё и бежать. Всех спасает золотая жила. Прииск быстро приносит богатство: теперь Гордей — золотопромышленник!-КиноПоиск | IMDB | Семпл-Качество видео: DVDRip
Формат видео: AVI
Видео: 704x304 (2.32:1), 25 fps, XviD build 73 ~1437 kbps avg, 0.27 bit/pixel
Аудио: 48 kHz, AC3 Dolby Digital, 3/2 (L,C,R,l,r) + LFE ch, ~448 kbps
MediaInfo
General
Complete name : E:\Золото.(Logan1995).avi
Format : AVI
Format/Info : Audio Video Interleave
File size : 1,46 Гбайт
Duration : 1 ч. 50 м.
Overall bit rate : 1895 Кбит/сек
Writing application : VirtualDubMod 1.5.10.3 | www.virtualdub-fr.org || (build 2550/release)
Writing library : VirtualDubMod build 2550/release
Video
ID : 0
Format : MPEG-4 Visual
Format profile : Advanced Simple@L5
Format settings, BVOP : 2
Format settings, QPel : Нет
Format settings, GMC : Без точки перехода
Format settings, Matrix : Выборочная
Codec ID : XVID
Codec ID/Hint : XviD
Duration : 1 ч. 50 м.
Bit rate : 1438 Кбит/сек
Width : 704 пикс.
Height : 304 пикс.
Display aspect ratio : 2,35:1
Frame rate : 25,000 кадр/сек
Color space : YUV
Chroma subsampling : 4:2:0
Bit depth : 8 бит
Scan type : Прогрессивная
Compression mode : С потерями
Bits/(Pixel*Frame) : 0.269
Stream size : 1,11 Гбайт (76%)
Writing library : XviD 73
Audio
ID : 1
Format : AC-3
Format/Info : Audio Coding 3
Mode extension : CM (complete main)
Codec ID : 2000
Duration : 1 ч. 50 м.
Bit rate mode : Постоянный
Bit rate : 448 Кбит/сек
Channel(s) : 6 канала(ов)
Channel positions : Front: L C R, Side: L R, LFE
Sampling rate : 48,0 КГц
Bit depth : 16 бит
Compression mode : С потерями
Stream size : 353 Мбайт (24%)
Alignment : Разделение по промежуткам
Interleave, duration : 40 мс. (1,00 видеокадр)
Interleave, preload duration : 500 ms
Скриншот c названием фильма Скриншоты Сравнения
[url=http://***/forum/viewtopic.php?t=4691134]http://***/forum/viewtopic.php?t=4691134[/url] http://screenshotcomparison.com/comparison/86968
Скачать

Скачать торрент!

Как скачивать? · Что такое торрент? · Рейтинг и ограничения

Сайт не распространяет и не хранит электронные версии произведений, а лишь предоставляет доступ к создаваемому пользователями каталогу ссылок на торрент-файлы, которые содержат только списки хеш-сумм

[Профиль] [ЛС]
Показать сообщения:    
Ответить на тему

Текущее время: Сегодня 22:16

Часовой пояс: GMT + 4



Вы не можете начинать темы
Вы не можете отвечать на сообщения
Вы не можете редактировать свои сообщения
Вы не можете удалять свои сообщения
Вы не можете голосовать в опросах
Вы не можете прикреплять файлы к сообщениям
Вы не можете скачивать файлы