Превосходство / Transcendence (Уолли Пфистер / Wally Pfister) [2014, Фантастика, триллер, драма, детектив, BDRip-AVC] AVO (Ю. Немахов) + Sub (rus. eng)

Ответить на тему
 
Автор Сообщение

user ®

Стаж: 7 лет 7 месяцев

Сообщений: 20008

Пост Пост: #1 от 08-Авг-2014 16:35

[Цитировать]

Превосходство / Transcendence
Страна: Великобритания, Китай, США / Alcon Entertainment, DMG Entertainment, Straight Up Films
Жанр: Фантастика, триллер, драма, детектив
Год выпуска: 2014
Продолжительность: 01:59:16-Перевод: Авторский (одноголосый закадровый) [Ю.Немахов]
Cубтитры: русские, английские (Full + SDH + SDH-Colored)
Формат субтитров: softsub (SRT)
Оригинальная аудиодорожка: нет-Режиссер: Уолли Пфистер / Wally Pfister
В ролях: Джонни Депп, Ребекка Холл, Пол Беттани, Киллиан Мёрфи, Кейт Мара, Коул Хаузер, Морган Фриман, Клифтон Коллинз мл., Кори Хардрикт, Фальк Хеншел
Описание: Выдающийся исследователь в области изучения искусственного интеллекта Доктор Уилл Кастер работает над созданием компьютера, который сможет собрать в себе все знания и опыт, накопленные человечеством. Достаточно спорные эксперименты, проводимые Уиллом, прославили его, и в то же время сделали основной целью радикальной анти-технологической группировки. Экстремисты делают все возможное, чтобы остановить его.-
Релиз от:
Автор рипа: potroks-Качество видео: BDRip-AVC [Transcendence 2014 1080p Blu-ray AVC DTS-HD MA 5.1-HDWinG]
Формат видео: MKV
Видео: х.264, 960x400 (2,40:1), 23.976 fps, 1305 kbps, 0.142 bit/pixel
Аудио: 48 kHz, AC3 Dolby Digital, 3/2 (L,C,R,l,r) + LFE ch, 448.00 kbps

MediaInfo
Общее
Уникальный идентификатор : 202400410075260363024251829178958272799 (0x9844E6AB585DDC7FA4B5B4522E22D91F)
Полное имя : Prevoshodstvo.2014.RUS.BDRip.x264.-HELLYWOOD.mkv
Формат : Matroska
Версия формата : Version 4 / Version 2
Размер файла : 1,46 Гбайт
Продолжительность : 1 ч. 59 м.
Общий поток : 1755 Кбит/сек
Название фильма : Transcendence (2014) - HELLYWOOD
Дата кодирования : UTC 2014-08-07 08:43:48
Программа кодирования : mkvmerge v5.9.0 ('On The Loose') built on Dec 15 2012 16:39:58
Библиотека кодирования : libebml v1.3.0 + libmatroska v1.4.0
Видео
Идентификатор : 1
Формат : AVC
Формат/Информация : Advanced Video Codec
Профиль формата : High@L4.1
Параметр CABAC формата : Да
Параметр ReFrames формата : 12 кадров
Идентификатор кодека : V_MPEG4/ISO/AVC
Продолжительность : 1 ч. 59 м.
Битрейт : 1305 Кбит/сек
Ширина : 960 пикселей
Высота : 400 пикселей
Соотношение сторон : 2,40:1
Режим частоты кадров : Постоянный
Частота кадров : 23,976 кадра/сек
Цветовое пространство : YUV
Субдискретизация насыщенности : 4:2:0
Битовая глубина : 8 бит
Тип развёртки : Прогрессивная
Бит/(Пиксели*Кадры) : 0.142
Размер потока : 1,06 Гбайт (72%)
Заголовок : potroks
Библиотека кодирования : x264 core 130 r2273 b3065e6
Настройки программы : cabac=1 / ref=12 / deblock=1:-2:-2 / analyse=0x3:0x133 / me=umh / subme=11 / psy=1 / psy_rd=0.99:0.02 / mixed_ref=1 / me_range=48 / chroma_me=1 / trellis=2 / 8x8dct=1 / cqm=0 / deadzone=21,11 / fast_pskip=0 / chroma_qp_offset=-3 / threads=9 / lookahead_threads=6 / sliced_threads=0 / nr=0 / decimate=0 / interlaced=0 / bluray_compat=0 / constrained_intra=0 / bframes=13 / b_pyramid=2 / b_adapt=2 / b_bias=0 / direct=3 / weightb=1 / open_gop=0 / weightp=2 / keyint=250 / keyint_min=23 / scenecut=40 / intra_refresh=0 / rc_lookahead=60 / rc=2pass / mbtree=0 / bitrate=1305 / ratetol=1.0 / qcomp=0.70 / qpmin=0 / qpmax=69 / qpstep=4 / cplxblur=20.0 / qblur=0.5 / vbv_maxrate=50000 / vbv_bufsize=62500 / nal_hrd=none / ip_ratio=1.35 / pb_ratio=1.25 / aq=1:0.80
Язык : English
Default : Да
Forced : Нет
Аудио
Идентификатор : 2
Формат : AC-3
Формат/Информация : Audio Coding 3
Расширение режима : CM (complete main)
Параметр Endianness формата : Big
Идентификатор кодека : A_AC3
Продолжительность : 1 ч. 59 м.
Вид битрейта : Постоянный
Битрейт : 448 Кбит/сек
Каналы : 6 каналов
Расположение каналов : Front: L C R, Side: L R, LFE
Частота : 48,0 КГц
Битовая глубина : 16 бит
Метод сжатия : С потерями
Размер потока : 382 Мбайт (26%)
Заголовок : AVO | DD 5.1 @ 448 kbps - Ю.Немахов
Язык : Russian
Default : Да
Forced : Да
Текст #1
Идентификатор : 3
Формат : UTF-8
Идентификатор кодека : S_TEXT/UTF8
Идентификатор кодека/Информация : UTF-8 Plain Text
Язык : Russian
Default : Нет
Forced : Нет
Текст #2
Идентификатор : 4
Формат : UTF-8
Идентификатор кодека : S_TEXT/UTF8
Идентификатор кодека/Информация : UTF-8 Plain Text
Заголовок : Full
Язык : English
Default : Нет
Forced : Нет
Текст #3
Идентификатор : 5
Формат : UTF-8
Идентификатор кодека : S_TEXT/UTF8
Идентификатор кодека/Информация : UTF-8 Plain Text
Заголовок : SDH
Язык : English
Default : Нет
Forced : Нет
Текст #4
Идентификатор : 6
Формат : UTF-8
Идентификатор кодека : S_TEXT/UTF8
Идентификатор кодека/Информация : UTF-8 Plain Text
Заголовок : SDH-Colored
Язык : English
Default : Нет
Forced : Нет
Меню
00:00:00.000 : en:00:00:00.000
00:11:20.847 : en:00:11:20.847
00:19:21.827 : en:00:19:21.827
00:31:00.776 : en:00:31:00.776
00:39:46.676 : en:00:39:46.676
00:50:20.434 : en:00:50:20.434
01:00:26.289 : en:01:00:26.289
01:11:07.972 : en:01:11:07.972
01:20:12.099 : en:01:20:12.099
01:29:36.037 : en:01:29:36.037
01:40:32.777 : en:01:40:32.777
01:50:53.772 : en:01:50:53.772
Скриншоты
Скачать

Скачать торрент!

Как скачивать? · Что такое торрент? · Рейтинг и ограничения

Сайт не распространяет и не хранит электронные версии произведений, а лишь предоставляет доступ к создаваемому пользователями каталогу ссылок на торрент-файлы, которые содержат только списки хеш-сумм

[Профиль] [ЛС]
Показать сообщения:    
Ответить на тему

Текущее время: Сегодня 09:58

Часовой пояс: GMT + 4



Вы не можете начинать темы
Вы не можете отвечать на сообщения
Вы не можете редактировать свои сообщения
Вы не можете удалять свои сообщения
Вы не можете голосовать в опросах
Вы не можете прикреплять файлы к сообщениям
Вы не можете скачивать файлы