Хранители света / The Lightkeepers (Дэниэл Адамс / Daniel Adams) [2009, США, комедия, HDTV 1080i] MVO

Ответить на тему
 
Автор Сообщение

user ®

Стаж: 7 лет 7 месяцев

Сообщений: 20008

Пост Пост: #1 от 08-Авг-2014 07:05

[Цитировать]

Хранители света / The Lightkeepers Страна: США
Жанр: комедия
Год выпуска: 2009
Продолжительность: 01:32:35
Перевод: Профессиональный (многоголосый закадровый)
Cубтитры: нет
Режиссер: Дэниэл Адамс / Daniel Adams
В ролях: Ричард Дрейфусс, Брюс Дерн, Мэми Гаммер, Блайт Даннер, Том Уисдом, Джули Харрис, Стивен Расселл, Теодора Грис, Джейсон Алан Смит, Бен Дрейфусс
Описание:
Жизни двух смотрителей маяка, твёрдо решивших никогда больше не иметь дела с противоположным полом, полностью меняются, когда в домике на побережье появляются две прекрасные женщины.
В AVI от edich2 тут: [url=http://***/forum/viewtopic.php?t=4797265]http://***/forum/viewtopic.php?t=4797265[/url]
Кинопоиск: http://www.kinopoisk.ru/film/414880/
Сэмпл: http://sendfile.su/1008993
Тип релиза: HDTV 1080i
Контейнер: TS
Видео: AVC/H.264, PAL, 1920x1080 (16:9), 9162 Кбит/сек, 25.000 fps
Аудио: русский, MP-2, 48000 Hz, 192 Кбит/сек, 2 ch
MediaInfo
Видео
Идентификатор : 224 (0xE0)
Идентификатор меню : 1 (0x1)
Формат : AVC
Формат/Информация : Advanced Video Codec
Профиль формата : High@L4.1
Параметр CABAC формата : Да
Параметр ReFrames формата : 3 кадра
Идентификатор кодека : 27
Продолжительность : 1 ч. 32 м.
Вид битрейта : Постоянный
Битрейт : 9162 Кбит/сек
Ширина : 1920 пикселей
Высота : 1080 пикселей
Соотношение сторон : 16:9
Частота кадров : 25,000 кадров/сек
Стандарт вещания : PAL
Цветовое пространство : YUV
Субдискретизация насыщенности : 4:2:0
Битовая глубина : 8 бит
Тип развёртки : Чересстрочная
Порядок развёртки : Верхнее поле первое
Бит/(Пиксели*Кадры) : 0.177
Размер потока : 5,82 Гбайт (93%)
Основные цвета : BT.709
Характеристики трансфера : BT.709
Коэффициенты матрицы : BT.709
Аудио
Идентификатор : 192 (0xC0)
Идентификатор меню : 1 (0x1)
Формат : MPEG Audio
Версия формата : Version 1
Профиль формата : Layer 2
Идентификатор кодека : 3
Продолжительность : 1 ч. 32 м.
Вид битрейта : Постоянный
Битрейт : 192 Кбит/сек
Каналы : 2 канала
Частота : 48,0 КГц
Метод сжатия : С потерями
Задержка видео : 24 мс.
Размер потока : 127 Мбайт (2%)
Язык : Russian
Скриншоты с названием фильма Скриншоты
Скачать

Скачать торрент!

Как скачивать? · Что такое торрент? · Рейтинг и ограничения

Сайт не распространяет и не хранит электронные версии произведений, а лишь предоставляет доступ к создаваемому пользователями каталогу ссылок на торрент-файлы, которые содержат только списки хеш-сумм

[Профиль] [ЛС]
Показать сообщения:    
Ответить на тему

Текущее время: Сегодня 00:11

Часовой пояс: GMT + 4



Вы не можете начинать темы
Вы не можете отвечать на сообщения
Вы не можете редактировать свои сообщения
Вы не можете удалять свои сообщения
Вы не можете голосовать в опросах
Вы не можете прикреплять файлы к сообщениям
Вы не можете скачивать файлы