Кровавый бой / Bloodfight (Сюдзи Гото / Shuji Goto) [1989, Гонконг, боевик, DVDRip] AVO (Живов) + AVO (Дольский) + Original Eng

Ответить на тему
 
Автор Сообщение

user ®

Стаж: 13 лет

Сообщений: 15071

Пост Пост: #1 от 07-Авг-2014 21:40

[Цитировать]

Кровавый бой / Bloodfight
Страна: Гонконг
Жанр: боевик
Год выпуска: 1989
Продолжительность: 01:36:27
Перевод 1: Авторский (одноголосый закадровый) Юрий Живов
Перевод 2: Авторский (одноголосый закадровый) Андрей Дольский
Cубтитры: нет
Оригинальная аудиодорожка: английский
Режиссер: Сюдзи Гото / Shuji Goto
В ролях: Ясуаки Курата, Саймон Ям, Мэг Лам, Кристина Лосон, Боло Йенг, Джон Ладальски, Стюарт Смит, Ричард Фу, Раджа Лион, Кен Бойл
Описание: Бывший победитель Гонконгского чемпионата мира по боевым искусствам, переживая потерю титула чемпиона, берет на обучение талантливого молодого бойца, которого на очередном турнире настигает несчастье: его убивает мерзкий, но сильный и крутой Ли, представитель вьетнамской школы борьбы. Спившись вначале от горя, тренер тем не менее находит в себе силы отомстить, поскольку, протрезвев, он стал усиленно готовиться к ответному поединку…

Доп. информация: Видео взято с раздачи Hammer71 на CG. За звуковую дорожку с авторским переводом Дольского огромное спасибо micky321. Синхронизация звуковых дорожек и работа со звуком - ale_x2008.
Сэмпл: http://sendfile.su/1009278
Качество видео: DVDRip
Формат видео: AVI
Видео: XviD, 624x464 (4:3), 23,976 fps, ~1952 kbps avg, 0.281 bit/pixel
Аудио 1: AC3 Dolby Digital, 48 kHz, 192 kbps, 2/0 (L,R)
Аудио 2: AC3 Dolby Digital, 48 kHz, 192 kbps, 2/0 (L,R)
Аудио 3: AC3 Dolby Digital, 48 kHz, 192 kbps, 2/0 (L,R)
MediaInfo
Общее
Полное имя : D:\Downloads\Bloodfight.1989.DVDRip.XviD.avi
Формат : AVI
Формат/Информация : Audio Video Interleave
Размер файла : 1,72 Гбайт
Продолжительность : 1 ч. 36 м.
Общий поток : 2547 Кбит/сек
Программа кодирования : VirtualDubMod 1.5.10.2 (build 2540/release)
Библиотека кодирования : VirtualDubMod build 2540/release
Видео
Идентификатор : 0
Формат : MPEG-4 Visual
Профиль формата : Simple@L3
Параметр BVOP формата : Нет
Параметр QPel формата : Нет
Параметр GMC формата : Без точки перехода
Параметр матрицы формата : Default (H.263)
Идентификатор кодека : XVID
Идентификатор кодека/Подсказка : XviD
Продолжительность : 1 ч. 36 м.
Битрейт : 1952 Кбит/сек
Ширина : 624 пикселя
Высота : 464 пикселя
Соотношение сторон : 4:3
Частота кадров : 23,976 кадра/сек
Цветовое пространство : YUV
Субдискретизация насыщенности : 4:2:0
Битовая глубина : 8 бит
Тип развёртки : Прогрессивная
Метод сжатия : С потерями
Бит/(Пиксели*Кадры) : 0.281
Размер потока : 1,32 Гбайт (77%)
Библиотека кодирования : XviD 1.2.1 (UTC 2008-12-04)
Аудио #1
Идентификатор : 1
Формат : AC-3
Формат/Информация : Audio Coding 3
Расширение режима : CM (complete main)
Параметр Endianness формата : Big
Идентификатор кодека : 2000
Продолжительность : 1 ч. 36 м.
Вид битрейта : Постоянный
Битрейт : 192 Кбит/сек
Каналы : 2 канала
Расположение каналов : Front: L R
Частота : 48,0 КГц
Битовая глубина : 16 бит
Метод сжатия : С потерями
Размер потока : 132 Мбайт (8%)
Выравнивание : Разделение по промежуткам
Продолжительность промежутка : 42 мс. (1,00 видеокадр)
Время предзагрузки промежутка : 500 мс.
Аудио #2
Идентификатор : 2
Формат : AC-3
Формат/Информация : Audio Coding 3
Расширение режима : CM (complete main)
Параметр Endianness формата : Big
Идентификатор кодека : 2000
Продолжительность : 1 ч. 36 м.
Вид битрейта : Постоянный
Битрейт : 192 Кбит/сек
Каналы : 2 канала
Расположение каналов : Front: L R
Частота : 48,0 КГц
Битовая глубина : 16 бит
Метод сжатия : С потерями
Размер потока : 132 Мбайт (8%)
Выравнивание : Разделение по промежуткам
Продолжительность промежутка : 42 мс. (1,00 видеокадр)
Время предзагрузки промежутка : 500 мс.
Аудио #3
Идентификатор : 3
Формат : AC-3
Формат/Информация : Audio Coding 3
Расширение режима : CM (complete main)
Параметр Endianness формата : Big
Идентификатор кодека : 2000
Продолжительность : 1 ч. 36 м.
Вид битрейта : Постоянный
Битрейт : 192 Кбит/сек
Каналы : 2 канала
Расположение каналов : Front: L R
Частота : 48,0 КГц
Битовая глубина : 16 бит
Метод сжатия : С потерями
Размер потока : 132 Мбайт (8%)
Выравнивание : Разделение по промежуткам
Продолжительность промежутка : 42 мс. (1,00 видеокадр)
Время предзагрузки промежутка : 500 мс.
Скриншот c названием фильма Скриншоты
Скачать

Скачать торрент! Кровавый бой / Bloodfight (Сюдзи Гото / Shuji Goto) [1989, Гонконг, боевик, DVDRip] AVO (Живов) + AVO (Дольский) + Original Eng

Как скачивать? · Что такое торрент? · Рейтинг и ограничения

Сайт не распространяет и не хранит электронные версии произведений, а лишь предоставляет доступ к создаваемому пользователями каталогу ссылок на торрент-файлы, которые содержат только списки хеш-сумм

[Профиль] [ЛС]
Показать сообщения:    
Ответить на тему

Текущее время: Сегодня 16:25

Часовой пояс: GMT + 4



Вы не можете начинать темы
Вы не можете отвечать на сообщения
Вы не можете редактировать свои сообщения
Вы не можете удалять свои сообщения
Вы не можете голосовать в опросах
Вы не можете прикреплять файлы к сообщениям
Вы не можете скачивать файлы