Скандалисты / Speed Scandal / Kwasok scandle / Scandal Makers (Хён-Чхоль Кан / Hyeong-Cheol Kang) [2008, Южная Корея, драма, комедия, музыка, HDRip] VO (mi24) + Sub (Rus, Eng) + Original Kor

Ответить на тему
 
Автор Сообщение

user ®

Стаж: 13 лет

Сообщений: 15071

Пост Пост: #1 от 07-Авг-2014 15:20

[Цитировать]

Скандалисты / Speed Scandal / Kwasok scandle / Scandal Makers
Страна: Южная Корея
Студия: DCG Plus, Lotte Entertainment, Toilet Pictures
Жанр: драма, комедия, музыка
Год выпуска: 2008
Продолжительность: 01:48:51
Перевод: Одноголосый закадровый mi24
Cубтитры: русские (ФСГ "АЛЬЯНС"), английские
Оригинальная аудиодорожка: корейский
Режиссер: Хён-Чхоль Кан / Hyeong-Cheol Kang
В ролях: Чха Тхэ Хён, Il-Kwon Ahn, Киеонг-мин Хонг, Сёк-хён Хванг, У-соль-хё Хванг, Чон Мин Со, Вон-чжун Чжон, Ки-Пан Ким, Хе-Джин Ким, Юн-хо Ким
Описание: Бывший популярный идол, тридцатилетний Нам Хюн Су — ведущий дневного радио шоу. Однажды, ему на передачу позвонила молодая мать-одиночка по имени Чжун Нам и поведала историю своей нелегкой жизни. Хюн Су советует ей обязательно разыскать своего отца, которого та никогда не видела. Но каково же было его удивление, когда он увидел эту девушку на пороге собственного дома. У Чжун Нам имеются веские доказательства того, что Хюн Сун — её отец, но тот не намерен пускать кого-либо в свою обустроенную холостяцкую жизнь.
II Сэмпл II IMDB II
Релиз группа:
Доп. информация:
За [url=http://***/forum/viewtopic.php?t=4596362]исходник[/url] спасибо G00ba
Качество видео: HDRip
Формат видео: AVI
Видео: Xvid 720x304 (2.37:1) 23.976fps Bit rate 2214Kbps b/p 0.422
Аудио 1: AC3 48.0 KHz 2ch. 192kbps rus vo
Аудио 2: AC3 48.0 KHz 6ch. 448kbps kor
Формат субтитров: softsub (SRT)
MediaInfo
Общее
Полное имя : E:\torrent\Speed.Scandal.2008.HDrip\Speed.Scandal.2008.HDrip.avi
Формат : AVI
Формат/Информация : Audio Video Interleave
Профиль формата : OpenDML
Размер файла : 2,18 Гбайт
Продолжительность : 1 ч. 48 м.
Общий поток : 2872 Кбит/сек
Программа кодирования : VirtualDubMod 1.5.10.3 (build 2550/release)
Библиотека кодирования : VirtualDubMod build 2550/release
Видео
Идентификатор : 0
Формат : MPEG-4 Visual
Профиль формата : Advanced Simple@L5
Параметр BVOP формата : 2
Параметр QPel формата : Нет
Параметр GMC формата : Без точки перехода
Параметр матрицы формата : Default (H.263)
Идентификатор кодека : XVID
Идентификатор кодека/Подсказка : XviD
Продолжительность : 1 ч. 48 м.
Битрейт : 2214 Кбит/сек
Ширина : 720 пикселей
Высота : 304 пикселя
Соотношение сторон : 2,35:1
Частота кадров : 23,976 кадра/сек
Цветовое пространство : YUV
Субдискретизация насыщенности : 4:2:0
Битовая глубина : 8 бит
Тип развёртки : Прогрессивная
Метод сжатия : С потерями
Бит/(Пиксели*Кадры) : 0.422
Размер потока : 1,68 Гбайт (77%)
Библиотека кодирования : XviD 1.2.1 (UTC 2008-12-04)
Аудио #1
Идентификатор : 1
Формат : AC-3
Формат/Информация : Audio Coding 3
Расширение режима : CM (complete main)
Параметр Endianness формата : Big
Идентификатор кодека : 2000
Продолжительность : 1 ч. 48 м.
Вид битрейта : Постоянный
Битрейт : 192 Кбит/сек
Каналы : 2 канала
Расположение каналов : Front: L R
Частота : 48,0 КГц
Битовая глубина : 16 бит
Метод сжатия : С потерями
Размер потока : 149 Мбайт (7%)
Выравнивание : Разделение по промежуткам
Продолжительность промежутка : 42 мс. (1,00 видеокадр)
Время предзагрузки промежутка : 500 мс.
Аудио #2
Идентификатор : 2
Формат : AC-3
Формат/Информация : Audio Coding 3
Расширение режима : CM (complete main)
Параметр Endianness формата : Big
Идентификатор кодека : 2000
Продолжительность : 1 ч. 48 м.
Вид битрейта : Постоянный
Битрейт : 448 Кбит/сек
Каналы : 6 каналов
Расположение каналов : Front: L C R, Side: L R, LFE
Частота : 48,0 КГц
Битовая глубина : 16 бит
Метод сжатия : С потерями
Размер потока : 349 Мбайт (16%)
Выравнивание : Разделение по промежуткам
Продолжительность промежутка : 42 мс. (1,00 видеокадр)
Время предзагрузки промежутка : 500 мс.
Скриншот c названием фильма Скриншоты
Скачать

Скачать торрент! Скандалисты / Speed Scandal / Kwasok scandle / Scandal Makers (Хён-Чхоль Кан / Hyeong-Cheol Kang) [2008, Южная Корея, драма, комедия, музыка, HDRip] VO (mi24) + Sub (Rus, Eng) + Original Kor

Как скачивать? · Что такое торрент? · Рейтинг и ограничения

Сайт не распространяет и не хранит электронные версии произведений, а лишь предоставляет доступ к создаваемому пользователями каталогу ссылок на торрент-файлы, которые содержат только списки хеш-сумм

[Профиль] [ЛС]
Показать сообщения:    
Ответить на тему

Текущее время: Сегодня 21:42

Часовой пояс: GMT + 4



Вы не можете начинать темы
Вы не можете отвечать на сообщения
Вы не можете редактировать свои сообщения
Вы не можете удалять свои сообщения
Вы не можете голосовать в опросах
Вы не можете прикреплять файлы к сообщениям
Вы не можете скачивать файлы