Под маской жиголо / Fading Gigolo (Джон Туртурро / John Turturro) [2013, США, комедия, BDRip 720p] Dub + Sub Eng + Original Eng

Ответить на тему
 
Автор Сообщение

user ®

Стаж: 7 лет 7 месяцев

Сообщений: 20008

Пост Пост: #1 от 07-Авг-2014 02:05

[Цитировать]

Под маской жиголо / Fading Gigolo
Страна: США
Жанр: комедия
Год выпуска: 2013
Продолжительность: 01:30:00
Перевод: Профессиональный (дублированный)
Cубтитры: английские
Оригинальная аудиодорожка: английский
Режиссер: Джон Туртурро / John Turturro
В ролях: Джон Туртурро, Вуди Аллен, Шэрон Стоун, София Вергара, Ванесса Паради, Лив Шрайбер, Тоня Пинкинс, Джейд Диксон, Обри Джозеф, Данте Хоагленд
Описание: Герой Вуди предлагает своему небогатому другу услуги сутенера в оригинальном бизнесе - любовных играх с состоятельными женщинами. И, казалось бы, все пошло как по маслу, но после череды комичных ляпов и позорных провалов, становится очевидно, что парни плывут против течения денег и любви…

MPAA: R - Лицам до 17 лет обязательно присутствие взрослого-
Автор рипа: Vikosol

Тип релиза: BDRip 720p [Fading.Gigolo.2013.1080p.BluRay.AVC.TrueHD.5.1-HDAccess]
Контейнер: MKV
Видео: AVC, 1280x690 (1.855), 7310 kbps, 23,976 fps, 0,345 bpp
Аудио №1: русский / AC3 / 5.1 / 48 kHz / 384 kbps / 16 bit |Tunes Russian|
Аудио №2: английский / AC3 / 5.1 / 48 kHz / 640 kbps / 16 bit
Навигация по главам: есть
Формат субтитров: softsub (SRT)
Source vs Encode ----------X264 iNFO------------
---[Information] [05.08.2014 7:31:28] x264 [info]: frame I:928   Avg QP:13.16  size:183399
---[Information] [05.08.2014 7:31:28] x264 [info]: frame P:25276 Avg QP:15.64  size: 69019
---[Information] [05.08.2014 7:31:28] x264 [info]: frame B:103263 Avg QP:17.46  size: 29198
---[Information] [05.08.2014 7:31:28] x264 [info]: consecutive B-frames:  1.5%  2.7%  4.3% 10.3% 13.3% 54.5%  7.2%  1.7%  1.4%  1.1%  0.9%  1.3%
MediaInfo
Format                           : Matroska
Format version                   : Version 4 / Version 2
File size                        : 5.24 GiB
Duration                         : 1h 30mn
Overall bit rate                 : 8 329 Kbps
Encoded date                     : UTC 2014-08-05 07:56:35
Writing application              : mkvmerge v6.8.0 ('Theme for Great Cities') 64bit built on Mar  2 2014 21:34:26
Writing library                  : libebml v1.3.0 + libmatroska v1.4.1
Video
ID                               : 1
Format                           : AVC
Format/Info                      : Advanced Video Codec
Format profile                   : High@L4.1
Format settings, CABAC           : Yes
Format settings, ReFrames        : 9 frames
Codec ID                         : V_MPEG4/ISO/AVC
Duration                         : 1h 30mn
Bit rate                         : 7 310 Kbps
Width                            : 1 280 pixels
Height                           : 690 pixels
Display aspect ratio             : 1.855
Frame rate                       : 23.976 fps
Color space                      : YUV
Chroma subsampling               : 4:2:0
Bit depth                        : 8 bits
Scan type                        : Progressive
Bits/(Pixel*Frame)               : 0.345
Stream size                      : 4.49 GiB (86%)
Writing library                  : x264 core 142 r2453kMod ea0ca51
Encoding settings                : cabac=1 / ref=9 / deblock=1:-3:-3 / analyse=0x3:0x113 / me=esa / subme=11 / psy=1 / fade_compensate=0.00 / psy_rd=1.00:0.20 / mixed_ref=1 / me_range=32 / chroma_me=1 / trellis=2 / 8x8dct=1 / cqm=0 / deadzone=21,11 / fast_pskip=0 / chroma_qp_offset=-3 / threads=6 / lookahead_threads=1 / sliced_threads=0 / nr=0 / decimate=0 / interlaced=0 / bluray_compat=0 / constrained_intra=0 / fgo=0 / bframes=11 / b_pyramid=2 / b_adapt=2 / b_bias=0 / direct=3 / weightb=1 / open_gop=0 / weightp=2 / keyint=240 / keyint_min=23 / scenecut=40 / intra_refresh=0 / rc_lookahead=60 / rc=2pass / mbtree=0 / bitrate=7310 / ratetol=1.0 / qcomp=0.70 / qpmin=0 / qpmax=69 / qpstep=4 / cplxblur=20.0 / qblur=0.5 / vbv_maxrate=62500 / vbv_bufsize=78125 / nal_hrd=none / filler=0 / ip_ratio=1.40 / pb_ratio=1.30 / aq=1:0.80
Language                         : English
Audio #1
ID                               : 2
Format                           : AC-3
Format/Info                      : Audio Coding 3
Mode extension                   : CM (complete main)
Codec ID                         : A_AC3
Duration                         : 1h 30mn
Bit rate mode                    : Constant
Bit rate                         : 384 Kbps
Channel(s)                       : 6 channels
Channel positions                : Front: L C R, Side: L R, LFE
Sampling rate                    : 48.0 KHz
Bit depth                        : 16 bits
Compression mode                 : Lossy
Stream size                      : 247 MiB (5%)
Language                         : Russian
Audio #2
ID                               : 3
Format                           : AC-3
Format/Info                      : Audio Coding 3
Mode extension                   : CM (complete main)
Codec ID                         : A_AC3
Duration                         : 1h 30mn
Bit rate mode                    : Constant
Bit rate                         : 640 Kbps
Channel(s)                       : 6 channels
Channel positions                : Front: L C R, Side: L R, LFE
Sampling rate                    : 48.0 KHz
Bit depth                        : 16 bits
Compression mode                 : Lossy
Stream size                      : 412 MiB (8%)
Language                         : English
Text
ID                               : 4
Format                           : UTF-8
Codec ID                         : S_TEXT/UTF8
Codec ID/Info                    : UTF-8 Plain Text
Language                         : English
Menu
00:00:00.000                     : en:00:00:00.000
00:08:48.528                     : en:00:08:48.528
00:16:42.877                     : en:00:16:42.877
00:27:44.663                     : en:00:27:44.663
00:33:42.812                     : en:00:33:42.812
00:43:01.579                     : en:00:43:01.579
00:51:21.495                     : en:00:51:21.495
00:57:07.257                     : en:00:57:07.257
01:01:33.481                     : en:01:01:33.481
01:10:18.005                     : en:01:10:18.005
01:16:28.000                     : en:01:16:28.000
01:25:15.319                     : en:01:25:15.319
Знаете ли Вы, что...
  • Работая над ролью вдовы раввина, Ванесса Паради несколько недель общалась с девушкой из закрытой еврейской общины, женщиной со схожей с ее героиней жизненной ситуацией. «Это была очень сильная, молодая, красивая женщина, – говорит Ванесса Паради, - ей было всего 25, но казалось, что она прожила уже больше ста лет».
  • Для создания аутентичной атмосферы в определенных эпизодах фильма, Джон Туртурро несколько лет изучал жизнь общины ортодоксальных евреев, читал книги по истории хасидов и встречался с многими людьми из этого круга.
  • Одно из немногих появлений Вуди Аллена в фильме, который он снимает не сам.
  • Первый, с кем Джон Туртурро поделился новой историей, был, как ни странно, его парикмахер. А парикмахер, привыкший беседовать во время стрижки с клиентами, разболтал все Вуди Аллену. Мэтру настолько понравилась идея Туртурро, что он сам скоро разыскал его и включился в работу.
  • еще 1 факт
    Скриншоты
Скачать

Скачать торрент!

Как скачивать? · Что такое торрент? · Рейтинг и ограничения

Сайт не распространяет и не хранит электронные версии произведений, а лишь предоставляет доступ к создаваемому пользователями каталогу ссылок на торрент-файлы, которые содержат только списки хеш-сумм

[Профиль] [ЛС]
Показать сообщения:    
Ответить на тему

Текущее время: Сегодня 22:42

Часовой пояс: GMT + 4



Вы не можете начинать темы
Вы не можете отвечать на сообщения
Вы не можете редактировать свои сообщения
Вы не можете удалять свои сообщения
Вы не можете голосовать в опросах
Вы не можете прикреплять файлы к сообщениям
Вы не можете скачивать файлы