Громобой / Stormbreaker (Джеффри Сакс / Geoffrey Sax) [2006, Германия, США, Великобритания, боевик, триллер, приключения, BDRip 720p] Dub + Original Eng + sub Eng

Ответить на тему
 
Автор Сообщение

user ®

Стаж: 7 лет 7 месяцев

Сообщений: 20008

Пост Пост: #1 от 07-Авг-2014 02:05

[Цитировать]

Громобой / Stormbreaker- Год выпуска: 2006
Выпущено: Германия, США, Великобритания
Жанр: боевик, триллер, приключения
Продолжительность: 01:33:15
Перевод: Профессиональный (полное дублирование)
Оригинальная звуковая дорожка: English
Субтитры: English, Italian, Italian SDH-Режиссер: Джеффри Сакс / Geoffrey Sax
В ролях: Алекс Петтифер, Алисия Сильверстоун, Микки Рурк, Софи Оконедо, Билл Найи, Юэн МакГрегор, Дэмиэн Льюис, Стивен Фрай, Сара Болджер, Энди Серкис
О фильме: Алекс Райдер – 14-летний сирота, воспитываемый дядей. Когда его опекун неожиданно погибает, Алекс узнает, что тот был агентом Британской секретной службы. Правительство просит Алекса продолжить выполнение дядиной миссии – расследования преступных дел крупного бизнесмена.
Тут Алексу и приходится применить все его умения и знания, которые передал ему опекун: альпинизм, подводное плавание, боевые искусства и умение обращаться с новейшими техническими изобретениями. В руках Алекса – судьба всего мира.
SbR!
Релиз:
Формат: MKV
Видео: 1280x544 at 23,976 fps, x264@L4.1, crf, ~6979 kbps avg
Аудио #01: Russian: 48 kHz, DTS, 3/2 (L,C,R,l,r) + LFE ch, ~768.00 kbps avg |Дубляж|
Аудио #02: English: 48 kHz, AC3, 3/2 (L,C,R,l,r) + LFE ch, ~640.00 kbps avg
Аудио #03: English: 48 kHz, AC3, 2/0 (L,R) ch, ~192.00 kbps avg |Commentary track with di Geoffrey Sax, Anthony Horowitz e Marc Samuelson|
Семпл-Source vs Encode
-
mInfo
Формат : Matroska
Версия формата : Version 4 / Version 2
Размер файла : 5,59 Гбайт
Продолжительность : 1 ч. 33 м.
Общий поток : 8582 Кбит/сек
Дата кодирования : UTC 2014-03-29 06:50:24
Программа кодирования : mkvmerge v6.8.0 ('Theme for Great Cities') 64bit built on Mar 2 2014 21:34:26
Библиотека кодирования : libebml v1.3.0 + libmatroska v1.4.1
Видео
Идентификатор : 1
Формат : AVC
Формат/Информация : Advanced Video Codec
Профиль формата : High@L4.1
Параметр CABAC формата : Да
Параметр ReFrames формата : 9 кадров
Идентификатор кодека : V_MPEG4/ISO/AVC
Продолжительность : 1 ч. 33 м.
Битрейт : 6811 Кбит/сек
Ширина : 1280 пикселей
Высота : 544 пикселя
Соотношение сторон : 2,35:1
Режим частоты кадров : Постоянный
Частота кадров : 23,976 кадра/сек
Цветовое пространство : YUV
Субдискретизация насыщенности : 4:2:0
Битовая глубина : 8 бит
Тип развёртки : Прогрессивная
Бит/(Пиксели*Кадры) : 0.408
Размер потока : 4,44 Гбайт (79%)
Заголовок : Stormbreaker 2006
Библиотека кодирования : x264 core 142 r2409kMod d6b4e63
Настройки программы : cabac=1 / ref=9 / deblock=1:-3:-3 / analyse=0x3:0x133 / me=umh / subme=10 / psy=1 / fade_compensate=0.00 / psy_rd=1.00:0.00 / mixed_ref=1 / me_range=32 / chroma_me=1 / trellis=2 / 8x8dct=1 / cqm=0 / deadzone=21,11 / fast_pskip=1 / chroma_qp_offset=-2 / threads=16 / lookahead_threads=2 / sliced_threads=0 / nr=0 / decimate=1 / interlaced=0 / bluray_compat=0 / constrained_intra=0 / fgo=0 / bframes=7 / b_pyramid=2 / b_adapt=2 / b_bias=0 / direct=3 / weightb=1 / open_gop=0 / weightp=2 / keyint=250 / keyint_min=23 / scenecut=40 / intra_refresh=0 / rc_lookahead=40 / rc=crf / mbtree=0 / crf=16.0000 / qcomp=0.65 / qpmin=0 / qpmax=40 / qpstep=4 / vbv_maxrate=50000 / vbv_bufsize=50000 / crf_max=0.0 / nal_hrd=none / filler=0 / ip_ratio=1.25 / pb_ratio=1.25 / aq=1:0.60
Язык : English
Default : Да
Forced : Нет
Аудио #1
Идентификатор : 2
Формат : DTS
Формат/Информация : Digital Theater Systems
Режим : 16
Параметр Endianness формата : Big
Идентификатор кодека : A_DTS
Продолжительность : 1 ч. 33 м.
Вид битрейта : Постоянный
Битрейт : 768 Кбит/сек
Каналы : 6 каналов
Расположение каналов : Front: L C R, Side: L R, LFE
Частота : 48,0 КГц
Битовая глубина : 24 бит
Метод сжатия : С потерями
Размер потока : 512 Мбайт (9%)
Заголовок : DTS 5.1 @ 768 Kbps - Дубляж
Язык : Russian
Default : Да
Forced : Нет
Аудио #2
Идентификатор : 3
Формат : AC-3
Формат/Информация : Audio Coding 3
Расширение режима : CM (complete main)
Параметр Endianness формата : Big
Идентификатор кодека : A_AC3
Продолжительность : 1 ч. 33 м.
Вид битрейта : Постоянный
Битрейт : 640 Кбит/сек
Каналы : 6 каналов
Расположение каналов : Front: L C R, Side: L R, LFE
Частота : 48,0 КГц
Битовая глубина : 16 бит
Метод сжатия : С потерями
Размер потока : 427 Мбайт (7%)
Заголовок : AC3 5.1 @ 640 Kbps
Язык : English
Default : Нет
Forced : Нет
Аудио #3
Идентификатор : 4
Формат : AC-3
Формат/Информация : Audio Coding 3
Расширение режима : CM (complete main)
Параметр Endianness формата : Big
Идентификатор кодека : A_AC3
Продолжительность : 1 ч. 33 м.
Вид битрейта : Постоянный
Битрейт : 192 Кбит/сек
Каналы : 2 канала
Расположение каналов : Front: L R
Частота : 48,0 КГц
Битовая глубина : 16 бит
Метод сжатия : С потерями
Размер потока : 128 Мбайт (2%)
Заголовок : AC3 2.0 @ 192 Kbps - Commentary track with di Geoffrey Sax, Anthony Horowitz e Marc Samuelson
Язык : English
Default : Нет
Forced : Нет
Текст #1
Идентификатор : 5
Формат : UTF-8
Идентификатор кодека : S_TEXT/UTF8
Идентификатор кодека/Информация : UTF-8 Plain Text
Язык : English
Default : Нет
Forced : Нет
Текст #2
Идентификатор : 6
Формат : UTF-8
Идентификатор кодека : S_TEXT/UTF8
Идентификатор кодека/Информация : UTF-8 Plain Text
Язык : Italian
Default : Нет
Forced : Нет
Текст #3
Идентификатор : 7
Формат : UTF-8
Идентификатор кодека : S_TEXT/UTF8
Идентификатор кодека/Информация : UTF-8 Plain Text
Заголовок : SDH
Язык : Italian
Default : Нет
Forced : Нет
Меню
00:00:00.000 : it:La famiglia di Alex / Вступление
00:03:49.229 : it:L'uccisione di lan
00:07:32.452 : it:L'inutile attesa / Плохая новость
00:12:40.760 : it:Una macchina speciale / Расследование
00:18:40.119 : it:L'MI-6 / Секретное место
00:24:54.493 : it:L'addestramento / Тренировочная база
00:31:51.910 : it:Lo Stormbreaker / Задание
00:34:33.071 : it:I "gadget"
00:37:22.240 : it:In missione / Громобой
00:44:50.688 : it:Stormbreaker alla prova
00:45:53.751 : it:A caccia di informazioni / Кто есть кто
00:50:51.048 : it:Duello pungente
00:53:01.178 : it:Le prove / Новый вирус
01:01:35.692 : it:Vendetta e R5 / Ловушка
01:06:12.969 : it:Cavarsela
01:08:43.119 : it:Corsa contro il tempo / Красная кнопка
01:15:46.542 : it:Scontro finale / Забыть все!
01:26:13.168 : it:Titoli di coda / Титры

-
Цитата:
* Сохранены и подписаны оригинальные чаптеры как на Blu-ray / RU DVD.
* За дорожку №1 с DVD спасибо psicho.
Скачать

Скачать торрент!

Как скачивать? · Что такое торрент? · Рейтинг и ограничения

Сайт не распространяет и не хранит электронные версии произведений, а лишь предоставляет доступ к создаваемому пользователями каталогу ссылок на торрент-файлы, которые содержат только списки хеш-сумм

[Профиль] [ЛС]
Показать сообщения:    
Ответить на тему

Текущее время: Сегодня 21:39

Часовой пояс: GMT + 4



Вы не можете начинать темы
Вы не можете отвечать на сообщения
Вы не можете редактировать свои сообщения
Вы не можете удалять свои сообщения
Вы не можете голосовать в опросах
Вы не можете прикреплять файлы к сообщениям
Вы не можете скачивать файлы