Лидер / Самый крутой / Top dog (Мартин Кемп / Martin Kemp) [2014, Великобритания, криминал, драма, DVDRip-AVC] VO (kyberpunk)

Ответить на тему
 
Автор Сообщение

user ®

Стаж: 7 лет 7 месяцев

Сообщений: 20008

Пост Пост: #1 от 07-Авг-2014 02:05

[Цитировать]

Лидер / Самый крутой / Top dog Страна: Великобритания
Жанр: криминал, драма
Год выпуска: 2014
Продолжительность: 01:31:42
Перевод: Одноголосый закадровый [url=http://***/forum/viewtopic.php?t=3828268]Михаил Яроцкий (kyberpunk)[/url] (ненормативная лексика)
Cубтитры: нет-Режиссер: Мартин Кемп / Martin Kemp
В ролях: Винсент Риган, Лео Грегори, Лейла Вонг, Риччи Харнетт, Адриан Палмер, Сьюзен Пенхалигон, Райан Олива
Описание: Билли Эванс является лидером отъявленных хулиганов, футбольных фанатов клуба «Тоттенхэм Хотспур». Билли откровенно наслаждается своей жизнью, считая, что он может быть выше закона. Одновременно он ведет жизнь простого обывателя, любит свою жену Саманту, заботится о ближних, готов выручить тетушку и дядю, попавших в неприятную историю с местным преступным авторитетом. Но когда Билли начинает путать его деятельность мелкого хулигана с преступным миром, в который он погружается быстро и безболезненно, это приводит к катастрофическим последствиям…-
Рейтинг R - Детям до 17 лет обязательно присутствие родителей!-Доп.информация: перевод доступен, благодаря mihaildns, будулайроманов, dikii, kokaino1987, slava_irish, guinness. Работа со звуком - Perevodman.
-Качество видео: DVDRip-AVC
Формат видео: MKV
Видео: 720x304 (2.35:1), 1747 Kbps, 25.000 fps, AVC (x264), High@L4.1, 0.319 bit/pixel
Аудио: 48 kHz, AC3 Dolby Digital, 3/2 (L,C,R) + L R, LFE ch, 448 kbps
MediaInfo
General
Unique ID : 185743724195745641972546677569973748666 (0x8BBCF0A687E582019CF213EDBC4583BA)
Format : Matroska
Format version : Version 4 / Version 2
File size : 1.41 GiB
Duration : 1h 31mn
Overall bit rate : 2 196 Kbps
Movie name : Релиз Переулка Переводмана
Encoded date : UTC 2014-07-03 05:08:15
Writing application : mkvmerge v6.0.0 ('Coming Up For Air') built on Jan 20 2013 09:52:00
Writing library : libebml v1.3.0 + libmatroska v1.4.0
Attachment : Top_Dog_2014_Poster.jpg
Video
ID : 1
Format : AVC
Format/Info : Advanced Video Codec
Format profile : High@L4.1
Format settings, CABAC : Yes
Format settings, ReFrames : 6 frames
Codec ID : V_MPEG4/ISO/AVC
Duration : 1h 31mn
Bit rate : 1 747 Kbps
Width : 720 pixels
Height : 304 pixels
Display aspect ratio : 2.35:1
Frame rate mode : Constant
Frame rate : 25.000 fps
Color space : YUV
Chroma subsampling : 4:2:0
Bit depth : 8 bits
Scan type : Progressive
Bits/(Pixel*Frame) : 0.319
Stream size : 1.09 GiB (78%)
Title : x264
Writing library : x264 core 142 r2431 ac76440
Encoding settings : cabac=1 / ref=7 / deblock=1:-2:-1 / analyse=0x3:0x133 / me=umh / subme=9 / psy=1 / psy_rd=1.00:0.15 / mixed_ref=1 / me_range=32 / chroma_me=1 / trellis=1 / 8x8dct=1 / cqm=0 / deadzone=21,11 / fast_pskip=0 / chroma_qp_offset=-5 / threads=6 / lookahead_threads=1 / sliced_threads=0 / nr=1 / decimate=1 / interlaced=0 / bluray_compat=0 / constrained_intra=0 / bframes=3 / b_pyramid=1 / b_adapt=1 / b_bias=0 / direct=1 / weightb=1 / open_gop=0 / weightp=1 / keyint=250 / keyint_min=25 / scenecut=40 / intra_refresh=0 / rc_lookahead=30 / rc=2pass / mbtree=1 / bitrate=1747 / ratetol=1.0 / qcomp=0.60 / qpmin=0 / qpmax=69 / qpstep=4 / cplxblur=20.0 / qblur=0.5 / vbv_maxrate=30000 / vbv_bufsize=30000 / nal_hrd=none / filler=0 / ip_ratio=1.40 / aq=1:1.00
Default : Yes
Forced : No
Color primaries : Generic film
Audio
ID : 2
Format : AC-3
Format/Info : Audio Coding 3
Mode extension : CM (complete main)
Format settings, Endianness : Big
Codec ID : A_AC3
Duration : 1h 31mn
Bit rate mode : Constant
Bit rate : 448 Kbps
Channel(s) : 6 channels
Channel positions : Front: L C R, Side: L R, LFE
Sampling rate : 48.0 KHz
Bit depth : 16 bits
Compression mode : Lossy
Stream size : 294 MiB (20%)
Title : AVO Kyberpunk
Language : Russian
Default : Yes
Forced : No
Скриншот с названием фильма Скриншоты
Скачать

Скачать торрент!

Как скачивать? · Что такое торрент? · Рейтинг и ограничения

Сайт не распространяет и не хранит электронные версии произведений, а лишь предоставляет доступ к создаваемому пользователями каталогу ссылок на торрент-файлы, которые содержат только списки хеш-сумм

[Профиль] [ЛС]
Показать сообщения:    
Ответить на тему

Текущее время: Сегодня 11:53

Часовой пояс: GMT + 4



Вы не можете начинать темы
Вы не можете отвечать на сообщения
Вы не можете редактировать свои сообщения
Вы не можете удалять свои сообщения
Вы не можете голосовать в опросах
Вы не можете прикреплять файлы к сообщениям
Вы не можете скачивать файлы