Девочка по вызову / Call Girl (Микаэль Марсимаин / Mikael Marcimain) [2012, Швеция, Норвегия, Финляндия, Ирландия, триллер, драма, BDRip 720p] DVO (den904, DeadSno) + Original (Swe) + Subs (Eng, Swe, Dut, Nor)

Ответить на тему
 
Автор Сообщение

user ®

Стаж: 7 лет 7 месяцев

Сообщений: 20008

Пост Пост: #1 от 06-Авг-2014 01:00

[Цитировать]

Девочка по вызову / Call Girl Страна: Швеция, Норвегия, Финляндия, Ирландия
Жанр: триллер, драма
Год выпуска: 2012
Продолжительность: 02:19:35
Перевод: Любительский (двухголосый закадровый) den904, DeadSno
Cубтитры: английские, датские, финские, норвежские, шведские (forced, full)
Оригинальная аудиодорожка: шведский
Режиссер: Микаэль Марсимаин / Mikael Marcimain
В ролях: Sofia Karemyr, Саймон Дж. Бергер, Йозефин Асплунд, Пернилла Аугуст, Андерс Бекман, Свен Нордин, Давид Денсик, Hanna Ullerstam, Сверрир Гуднасон, Maria Alm Norell
Описание:
Политический триллер, основанный на событиях, произошедших в политический жизни Швеции в 1977 году — тогда достоянием общественности стала информация о том, что министр юстиции Леннарт Гейр является клиентом одного из публичных домов Стокгольма.
- || || || -Тип релиза: BDRip 720p (рип от Mashimaro@CtrlHD)
Контейнер: MKV
Видео: AVC (x264), 1280x534 (2,40:1) at 24,000 fps, 5700 Кbps, 0.347 bpp
Аудио 1: AC3; 640 Kbps; CBR; 6 ch; 48 khz | DVO - den904, DeadSno |
Аудио 2: AC3; 640 Kbps; CBR; 6 ch; 48 khz | Шведский |
Формат субтитров: softsub (SRT)

Скриншоты || x264 Info || MediaInfo || Notes
Notes: Аудио дорожка 1 и субтитры взяты с этой [url=http://***/forum/viewtopic.php?t=4761783]раздачи[/url], thx: arxivariys
MediaInfo
Общее
Уникальный идентификатор                 : 197720275988103458518775145298451493836 (0x94BF8A3E58291BA89BC4D6CDA91BF3CC)
Полное имя                               : Девочка по вызову.2012.DVO.720p.BluRay.x264-CtrlHD.mkv
Формат                                   : Matroska
Версия формата                           : Version 4 / Version 2
Размер файла                             : 6,81 Гбайт
Продолжительность                        : 2 ч. 19 м.
Общий поток                              : 6983 Кбит/сек
Название фильма                          : Call Girl [720p] [2012] DVO
Дата кодирования                         : UTC 2014-08-01 11:43:35
Программа кодирования                    : mkvmerge v7.1.0 ('Good Love') 32bit built on Jul 27 2014 12:59:18
Библиотека кодирования                   : libebml v1.3.0 + libmatroska v1.4.1
Видео
Идентификатор                            : 1
Формат                                   : AVC
Формат/Информация                        : Advanced Video Codec
Профиль формата                          : High@L4.1
Параметр CABAC формата                   : Да
Параметр ReFrames формата                : 12 кадров
Идентификатор кодека                     : V_MPEG4/ISO/AVC
Продолжительность                        : 2 ч. 19 м.
Битрейт                                  : 5700 Кбит/сек
Ширина                                   : 1280 пикселей
Высота                                   : 534 пикселя
Соотношение сторон                       : 2,40:1
Режим частоты кадров                     : Постоянный
Частота кадров                           : 24,000 кадра/сек
Цветовое пространство                    : YUV
Субдискретизация насыщенности            : 4:2:0
Битовая глубина                          : 8 бит
Тип развёртки                            : Прогрессивная
Бит/(Пиксели*Кадры)                      : 0.347
Размер потока                            : 5,42 Гбайт (80%)
Заголовок                                : profile.php?mode=viewprofile&u=22488948
Библиотека кодирования                   : x264 core 135 r2345kMod f0c1c53
Настройки программы                      : cabac=1 / ref=12 / deblock=1:-3:-3 / analyse=0x3:0x113 / me=umh / subme=10 / psy=1 / fade_compensate=0.00 / psy_rd=1.10:0.00 / mixed_ref=1 / me_range=16 / chroma_me=1 / trellis=2 / 8x8dct=1 / cqm=0 / deadzone=21,11 / fast_pskip=0 / chroma_qp_offset=-2 / threads=3 / lookahead_threads=1 / sliced_threads=0 / nr=0 / decimate=0 / interlaced=0 / bluray_compat=0 / constrained_intra=0 / bframes=8 / b_pyramid=2 / b_adapt=2 / b_bias=0 / direct=3 / weightb=1 / open_gop=0 / weightp=2 / keyint=250 / keyint_min=24 / scenecut=40 / intra_refresh=0 / rc=2pass / mbtree=0 / bitrate=5700 / ratetol=1.0 / qcomp=0.80 / qpmin=0 / qpmax=69 / qpstep=4 / cplxblur=20.0 / qblur=0.5 / ip_ratio=1.20 / pb_ratio=1.10 / aq=1:0.80
Язык                                     : English
Default                                  : Да
Forced                                   : Нет
Аудио #1
Идентификатор                            : 2
Формат                                   : AC-3
Формат/Информация                        : Audio Coding 3
Расширение режима                        : CM (complete main)
Параметр Endianness формата              : Big
Идентификатор кодека                     : A_AC3
Продолжительность                        : 2 ч. 19 м.
Вид битрейта                             : Постоянный
Битрейт                                  : 640 Кбит/сек
Каналы                                   : 6 каналов
Расположение каналов                     : Front: L C R, Side: L R, LFE
Частота                                  : 48,0 КГц
Битовая глубина                          : 16 бит
Метод сжатия                             : С потерями
Размер потока                            : 639 Мбайт (9%)
Заголовок                                : DVO [den904, DeadSno]
Язык                                     : Russian
Default                                  : Да
Forced                                   : Нет
Аудио #2
Идентификатор                            : 3
Формат                                   : AC-3
Формат/Информация                        : Audio Coding 3
Расширение режима                        : CM (complete main)
Параметр Endianness формата              : Big
Идентификатор кодека                     : A_AC3
Продолжительность                        : 2 ч. 19 м.
Вид битрейта                             : Постоянный
Битрейт                                  : 640 Кбит/сек
Каналы                                   : 6 каналов
Расположение каналов                     : Front: L C R, Side: L R, LFE
Частота                                  : 48,0 КГц
Битовая глубина                          : 16 бит
Метод сжатия                             : С потерями
Размер потока                            : 639 Мбайт (9%)
Язык                                     : Swedish
Default                                  : Нет
Forced                                   : Нет
Текст #1
Идентификатор                            : 4
Формат                                   : UTF-8
Идентификатор кодека                     : S_TEXT/UTF8
Идентификатор кодека/Информация          : UTF-8 Plain Text
Язык                                     : English
Default                                  : Нет
Forced                                   : Нет
Текст #2
Идентификатор                            : 5
Формат                                   : UTF-8
Идентификатор кодека                     : S_TEXT/UTF8
Идентификатор кодека/Информация          : UTF-8 Plain Text
Язык                                     : Danish
Default                                  : Нет
Forced                                   : Нет
Текст #3
Идентификатор                            : 6
Формат                                   : UTF-8
Идентификатор кодека                     : S_TEXT/UTF8
Идентификатор кодека/Информация          : UTF-8 Plain Text
Язык                                     : Finnish
Default                                  : Нет
Forced                                   : Нет
Текст #4
Идентификатор                            : 7
Формат                                   : UTF-8
Идентификатор кодека                     : S_TEXT/UTF8
Идентификатор кодека/Информация          : UTF-8 Plain Text
Язык                                     : Norwegian
Default                                  : Нет
Forced                                   : Нет
Текст #5
Идентификатор                            : 8
Формат                                   : UTF-8
Идентификатор кодека                     : S_TEXT/UTF8
Идентификатор кодека/Информация          : UTF-8 Plain Text
Язык                                     : Swedish
Default                                  : Нет
Forced                                   : Нет
Текст #6
Идентификатор                            : 9
Формат                                   : UTF-8
Идентификатор кодека                     : S_TEXT/UTF8
Идентификатор кодека/Информация          : UTF-8 Plain Text
Язык                                     : Swedish
Default                                  : Нет
Forced                                   : Нет
Меню
00:00:00.000                             : en:Chapter 1
00:10:02.208                             : en:Chapter 2
00:19:22.375                             : en:Chapter 3
00:28:38.125                             : en:Chapter 4
00:39:08.333                             : en:Chapter 5
00:50:59.000                             : en:Chapter 6
00:59:14.625                             : en:Chapter 7
01:09:57.417                             : en:Chapter 8
01:20:36.125                             : en:Chapter 9
01:29:42.250                             : en:Chapter 10
01:40:35.708                             : en:Chapter 11
01:48:53.292                             : en:Chapter 12
01:58:37.833                             : en:Chapter 13
02:10:32.125                             : en:Chapter 14
02:17:31.250                             : en:Chapter 15
x264 Infox264 [info]: frame I:1518 Avg QP:18.28 size: 72774
x264 [info]: frame P:39909 Avg QP:18.92 size: 41016
x264 [info]: frame B:159574 Avg QP:19.76 size: 26015
x264 [info]: consecutive B-frames: 1.4% 1.9% 8.1% 11.3% 12.3% 51.1% 5.6% 2.7% 5.6%
Скачать

Скачать торрент!

Как скачивать? · Что такое торрент? · Рейтинг и ограничения

Сайт не распространяет и не хранит электронные версии произведений, а лишь предоставляет доступ к создаваемому пользователями каталогу ссылок на торрент-файлы, которые содержат только списки хеш-сумм

[Профиль] [ЛС]
Показать сообщения:    
Ответить на тему

Текущее время: Сегодня 23:42

Часовой пояс: GMT + 4



Вы не можете начинать темы
Вы не можете отвечать на сообщения
Вы не можете редактировать свои сообщения
Вы не можете удалять свои сообщения
Вы не можете голосовать в опросах
Вы не можете прикреплять файлы к сообщениям
Вы не можете скачивать файлы