Восточный роман (Виктор Титов) [1992, Мелодрама, социальная драма, SATRip]

Ответить на тему
 
Автор Сообщение

user ®

Стаж: 7 лет 7 месяцев

Сообщений: 20008

Пост Пост: #1 от 06-Авг-2014 01:00

[Цитировать]

Восточный роман
Жанр: Мелодрама, социальная драма
Год выпуска: 1992
Продолжительность: 1:24:54
Режиссёр: Виктор Титов
В ролях: Лариса Белогурова, Николай Ерёменко (мл.), Армен Джигарханян, Рамаз Чхиквадзе, Нонна Петросян, Ольга Волкова, Мурад Раджабов, Армен Мирзаханян, Арменак Назикян, Катя Волкова (II), Казис Урмонас, Ольга Колоскова (Тарасенко)
Описание: Фильм из пяти новелл, которые отражают пять этапов программы действий героини фильма, с пятнадцати лет устремившейся к типичной для того времени цели - улыбнуться с полосы центральной газеты.Ее судьба не проста: несчастная любовь, жизнь с нелюбимым, трудовая колония, снова любовь, потом ответная любовь, землетрясение, пожары, разруха. Героиня все ближе и ближе к цели, и ее ничто не в состоянии остановить...
Доп. информация: Производство: Ленфильм, Голос
Премьера: 15 июня 1996 (НТВ, Россия)
Сэмпл: https://www.sendspace.com/file/6zc4l9
Качество видео: SATRip
Формат видео: AVI
Видео: XviD MPEG-4 , 704x528 (1.33:1) , 25 fps , 2250 kbps avg
Аудио: AC3 , 48 kHz , 192.00 kbps avg , 2/0 (L,R) ch
MediaInfo
Complete name Восточный роман 1992.avi
Format : AVI
Format/Info : Audio Video Interleave
File size : 1.45 GiB
Duration : 1h 24mn
Overall bit rate : 2 452 Kbps
Writing library : VirtualDub build 35491/release
Video
ID : 0
Format : MPEG-4 Visual
Format profile : Advanced Simple@L5
Format settings, BVOP : 2
Format settings, QPel : No
Format settings, GMC : No warppoints
Format settings, Matrix : Default (H.263)
Codec ID : XVID
Codec ID/Hint : XviD
Duration : 1h 24mn
Bit rate : 2 250 Kbps
Width : 704 pixels
Height : 528 pixels
Display aspect ratio : 4:3
Frame rate : 25.000 fps
Color space : YUV
Chroma subsampling : 4:2:0
Bit depth : 8 bits
Scan type : Progressive
Compression mode : Lossy
Bits/(Pixel*Frame) : 0.242
Stream size : 1.33 GiB (92%)
Writing library : XviD 1.2.1 (UTC 2008-12-04)
Audio
ID : 1
Format : AC-3
Format/Info : Audio Coding 3
Mode extension : CM (complete main)
Format settings, Endianness : Big
Codec ID : 2000
Duration : 1h 24mn
Bit rate mode : Constant
Bit rate : 192 Kbps
Channel(s) : 2 channels
Channel positions : Front: L R
Sampling rate : 48.0 KHz
Bit depth : 16 bits
Compression mode : Lossy
Stream size : 117 MiB (8%)
Alignment : Aligned on interleaves
Interleave, duration : 40 ms (1.00 video frame)
Interleave, preload duration : 512 ms
Скриншот c названием фильма Скриншоты
Скачать

Скачать торрент!

Как скачивать? · Что такое торрент? · Рейтинг и ограничения

Сайт не распространяет и не хранит электронные версии произведений, а лишь предоставляет доступ к создаваемому пользователями каталогу ссылок на торрент-файлы, которые содержат только списки хеш-сумм

[Профиль] [ЛС]
Показать сообщения:    
Ответить на тему

Текущее время: Сегодня 12:34

Часовой пояс: GMT + 4



Вы не можете начинать темы
Вы не можете отвечать на сообщения
Вы не можете редактировать свои сообщения
Вы не можете удалять свои сообщения
Вы не можете голосовать в опросах
Вы не можете прикреплять файлы к сообщениям
Вы не можете скачивать файлы