Дом с паранормальными явлениями 2 / A Haunted House 2 (Майкл Тиддес / Michael Tiddes) [2014, США, Пародия, комедия, ужасы, BDRip-AVC] Dub (Line) + Sub Eng + Original Eng

Ответить на тему
 
Автор Сообщение

user ®

Стаж: 7 лет 7 месяцев

Сообщений: 20008

Пост Пост: #1 от 06-Авг-2014 01:00

[Цитировать]

Дом с паранормальными явлениями 2 /
A Haunted House 2
- Страна: США
Жанр: Пародия, комедия, ужасы
Год выпуска: 2014
Продолжительность: 01:26:53-Перевод: Профессиональный (дублированный) Line
Cубтитры: английские
Оригинальная аудиодорожка: английский-Режиссер: Майкл Тиддес / Michael Tiddes
В ролях: Марлон Уайанс, Джейми Прессли, Эссенс Эткинс, Гэбриел Иглесиас, Мисси Пайлm Эшли Рикардс, Эффион Крокетт, Стил Стеббинс, Рик Овертон, Хэйз МакАртур-Описание: Малькольм, изгнавший демонов из своей бывшей подружки, начинает новую жизнь с другой девушкой и ее двумя детьми. После переезда в дом своей мечты, с Малькольмом снова начинают случаться загадочные происшествия. И, похоже, паранормальные явления теперь преследуют его не только в собственном доме…
-
-Качество видео: BDRip-AVC (A.Haunted.House.2.2014.1080p.BluRay.REMUX.AVC.DTS-HD.MA.5.1-RARBG)
Формат видео: MKV
Видео: x.264, 1056x572, 2688 kbps, 23.976 fps
Аудио 1: AC3, 48000 Hz, 384 kbps, 2.0 ch - DUB (Line)
Аудио 2: AC3, 48000 Hz, 448 kbps, 5.1 ch - ENG
Формат субтитров: softsub (SRT)
-Скриншоты Резервные скриншоты
-
MediaInfo / log
Format : Matroska
Format version : Version 4 / Version 2
File size : 2.14 GiB
Duration : 1h 26mn
Overall bit rate : 3 518 Kbps
Movie name : Дом с паранормальными явлениями 2 / A Haunted House 2 (20114) BDRip-AVC
Encoded date : UTC 2014-08-05 11:41:20
Writing application : mkvmerge v7.1.0 ('Good Love') 32bit built on Jul 27 2014 12:59:18
Writing library : libebml v1.3.0 + libmatroska v1.4.1
Attachment : Yes
Video
ID : 1
Format : AVC
Format/Info : Advanced Video Codec
Format profile : High@L4.1
Format settings, CABAC : Yes
Format settings, ReFrames : 10 frames
Codec ID : V_MPEG4/ISO/AVC
Duration : 1h 26mn
Bit rate : 2 688 Kbps
Width : 1 056 pixels
Height : 572 pixels
Display aspect ratio : 1.85:1
Frame rate mode : Constant
Frame rate : 23.976 fps
Color space : YUV
Chroma subsampling : 4:2:0
Bit depth : 8 bits
Scan type : Progressive
Bits/(Pixel*Frame) : 0.186
Stream size : 1.59 GiB (74%)
Title : RG Torrents.ru
Writing library : x264 core 142 r2453 ea0ca51
Encoding settings : cabac=1 / ref=10 / deblock=1:-2:-1 / analyse=0x3:0x113 / me=umh / subme=10 / psy=1 / psy_rd=1.05:0.10 / mixed_ref=1 / me_range=32 / chroma_me=1 / trellis=2 / 8x8dct=1 / cqm=0 / deadzone=21,11 / fast_pskip=0 / chroma_qp_offset=-3 / threads=6 / lookahead_threads=1 / sliced_threads=0 / nr=0 / decimate=1 / interlaced=0 / bluray_compat=0 / constrained_intra=0 / bframes=8 / b_pyramid=2 / b_adapt=2 / b_bias=0 / direct=3 / weightb=1 / open_gop=0 / weightp=2 / keyint=240 / keyint_min=23 / scenecut=40 / intra_refresh=0 / rc_lookahead=60 / rc=2pass / mbtree=0 / bitrate=2688 / ratetol=1.0 / qcomp=0.60 / qpmin=0 / qpmax=69 / qpstep=4 / cplxblur=20.0 / qblur=0.5 / vbv_maxrate=10000 / vbv_bufsize=15000 / nal_hrd=none / filler=0 / ip_ratio=1.30 / pb_ratio=1.25 / aq=1:1.00
Language : English
Default : Yes
Forced : No
Audio #1
ID : 2
Format : AC-3
Format/Info : Audio Coding 3
Mode extension : CM (complete main)
Format settings, Endianness : Big
Codec ID : A_AC3
Duration : 1h 26mn
Bit rate mode : Constant
Bit rate : 384 Kbps
Channel(s) : 2 channels
Channel positions : Front: L R
Sampling rate : 48.0 KHz
Bit depth : 16 bits
Compression mode : Lossy
Stream size : 239 MiB (11%)
Language : Russian
Default : Yes
Forced : No
Audio #2
ID : 3
Format : AC-3
Format/Info : Audio Coding 3
Mode extension : CM (complete main)
Format settings, Endianness : Big
Codec ID : A_AC3
Duration : 1h 26mn
Bit rate mode : Constant
Bit rate : 448 Kbps
Channel(s) : 6 channels
Channel positions : Front: L C R, Side: L R, LFE
Sampling rate : 48.0 KHz
Bit depth : 16 bits
Compression mode : Lossy
Stream size : 278 MiB (13%)
Language : English
Default : No
Forced : No
Text
ID : 4
Format : UTF-8
Codec ID : S_TEXT/UTF8
Codec ID/Info : UTF-8 Plain Text
Language : English
Default : No
Forced : No
Menu
00:00:00.000 : en:Chapter 01
00:03:38.176 : en:Chapter 02
00:07:40.084 : en:Chapter 03
00:12:18.487 : en:Chapter 04
00:17:27.838 : en:Chapter 05
00:23:32.661 : en:Chapter 06
00:29:36.399 : en:Chapter 07
00:33:52.989 : en:Chapter 08
00:37:33.542 : en:Chapter 09
00:40:22.002 : en:Chapter 10
00:43:05.833 : en:Chapter 11
00:47:35.602 : en:Chapter 12
00:50:14.261 : en:Chapter 13
00:55:32.120 : en:Chapter 14
01:00:16.821 : en:Chapter 15
01:04:35.746 : en:Chapter 16
01:08:17.718 : en:Chapter 17
01:12:14.371 : en:Chapter 18
01:15:57.261 : en:Chapter 19
01:20:03.548 : en:Chapter 20
01:26:53.333 : en:Chapter 21
===========================================================
x264 [info]: frame I:1105 Avg QP:15.71 size: 93027
x264 [info]: frame P:32015 Avg QP:17.39 size: 25311
x264 [info]: frame B:91881 Avg QP:19.17 size: 9096
x264 [info]: consecutive B-frames: 4.1% 3.4% 16.5% 27.3% 16.0% 25.3% 3.5% 2.3% 1.7%
Скачать

Скачать торрент!

Как скачивать? · Что такое торрент? · Рейтинг и ограничения

Сайт не распространяет и не хранит электронные версии произведений, а лишь предоставляет доступ к создаваемому пользователями каталогу ссылок на торрент-файлы, которые содержат только списки хеш-сумм

[Профиль] [ЛС]
Показать сообщения:    
Ответить на тему

Текущее время: Сегодня 06:14

Часовой пояс: GMT + 4



Вы не можете начинать темы
Вы не можете отвечать на сообщения
Вы не можете редактировать свои сообщения
Вы не можете удалять свои сообщения
Вы не можете голосовать в опросах
Вы не можете прикреплять файлы к сообщениям
Вы не можете скачивать файлы