Наследие демона / Demon Legacy (Рэнд Восслер / Rand Vossler ) [2014, США, ужасы, DVDRip] DVO (den904 & DeadSno)

Ответить на тему
 
Автор Сообщение

user ®

Стаж: 7 лет 7 месяцев

Сообщений: 20008

Пост Пост: #1 от 05-Авг-2014 15:30

[Цитировать]

Наследие демона / Demon Legacy
Страна: США
Жанр: ужасы
Год выпуска: 2014
Продолжительность: 01:33:25
Перевод: Любительский (двухголосый закадровый) [2D] - перевод на русский язык [Ворон] - работа со звуком [Гуннлауг]
Cубтитры: нет
Оригинальная аудиодорожка: да
Режиссер: Рэнд Восслер / Rand Vossler
В ролях: Мэттью Карри Холмс, АннаМария Демара, Эйлин Дитц, Анджелина Любомирова, Нэнси МакКрамб, Мишель Нюнс, Грант Алан, Кортни Палм, Джон Сэвэдж, Кати Шарп.
Описание: Пятеро подруг приезжают в загородный дом своей подруги, чтобы поддержать ее после тяжелого разрыва с бойфрендом. Девушки решают закатить бесбашенную вечеринку, но она не получается и всем скушно...изрядно набравшись алкоголем, они вспоминают игру, где участники должны по очереди ходить в страшные места или подвергаться страшным розыгрышам..так, одна из девиц находит в подвале доску для спиритуализма и их игра обретает новый оборот. Теперь они играют в игру вместе с демоном.



смотреть РУССКИЙ ТРЕЙЛЕР к фильму на youtube
скачать СЕМПЛ с multi-up
Качество видео: DVDRip
Формат видео: AVI
Видео: 640x352 (1.82:1), 25 fps, XviD build 50 ~1049 kbps avg, 0.19 bit/pixel
Аудио #1: 48 kHz, AC3 Dolby Digital, 2/0 (L,R) ch, ~192 kbps [rus]
Аудио #2: 48 kHz, MPEG Layer 3, 2 ch, ~128.00 kbps avg [eng]
MediaInfo
X:\Demon.Legacy.2014.DVDRip.XViD.KOLOBOK.avi
General
Complete name : X:\Demon.Legacy.2014.DVDRip.XViD.KOLOBOK.avi
Format : AVI
Format/Info : Audio Video Interleave
File size : 926 MiB
Duration : 1h 33mn
Overall bit rate : 1 385 Kbps
Writing application : VirtualDubMod 1.5.10.3 | www.virtualdub-fr.org || (build 2550/release)
Writing library : VirtualDubMod build 2550/release
Video #0
ID : 0
Format : MPEG-4 Visual
Format profile : Advanced Simple@L5
Format settings, BVOP : 2
Format settings, QPel : No
Format settings, GMC : No warppoints
Format settings, Matrix : Default (H.263)
Codec ID : XVID
Codec ID/Hint : XviD
Duration : 1h 33mn
Bit rate : 1 051 Kbps
Width : 640 pixels
Height : 352 pixels
Display aspect ratio : 16:9
Frame rate : 25.000 fps
Color space : YUV
Chroma subsampling : 4:2:0
Bit depth : 8 bits
Scan type : Progressive
Compression mode : Lossy
Bits/(Pixel*Frame) : 0.187
Stream size : 702 MiB (76%)
Writing library : XviD 1.2.1 (UTC 2008-12-04)
Audio #1
ID : 1
Format : AC-3
Format/Info : Audio Coding 3
Mode extension : CM (complete main)
Codec ID : 2000
Duration : 1h 33mn
Bit rate mode : Constant
Bit rate : 192 Kbps
Channel(s) : 2 channels
Channel positions : Front: L R
Sampling rate : 48.0 KHz
Bit depth : 16 bits
Compression mode : Lossy
Stream size : 128 MiB (14%)
Alignment : Split accross interleaves
Interleave, duration : 40 ms (1.00 video frame)
Interleave, preload duration : 500 ms
Audio #2
ID : 2
Format : MPEG Audio
Format version : Version 1
Format profile : Layer 3
Mode : Joint stereo
Mode extension : MS Stereo
Codec ID : 55
Codec ID/Hint : MP3
Duration : 1h 33mn
Bit rate mode : Constant
Bit rate : 128 Kbps
Channel(s) : 2 channels
Sampling rate : 48.0 KHz
Compression mode : Lossy
Stream size : 85.5 MiB (9%)
Alignment : Split accross interleaves
Interleave, duration : 40 ms (1.00 video frame)
Interleave, preload duration : 500 ms
Writing library : LAME3.99r
Encoding settings : -m j -V 4 -q 2 -lowpass 17 -b 128
Скриншот c названием фильма Скриншоты Релиз от:
Скачать

Скачать торрент!

Как скачивать? · Что такое торрент? · Рейтинг и ограничения

Сайт не распространяет и не хранит электронные версии произведений, а лишь предоставляет доступ к создаваемому пользователями каталогу ссылок на торрент-файлы, которые содержат только списки хеш-сумм

[Профиль] [ЛС]
Показать сообщения:    
Ответить на тему

Текущее время: Сегодня 19:38

Часовой пояс: GMT + 4



Вы не можете начинать темы
Вы не можете отвечать на сообщения
Вы не можете редактировать свои сообщения
Вы не можете удалять свои сообщения
Вы не можете голосовать в опросах
Вы не можете прикреплять файлы к сообщениям
Вы не можете скачивать файлы