Первый мститель: Другая война / Captain America: The Winter Soldier (Энтони Руссо / Anthony Russo, Джо Руссо / Joe Russo) [2014, США, фантастика, боевик, приключения, BDRip-AVC] Dub + Original + Sub (Rus, Eng)

Ответить на тему
 
Автор Сообщение

user ®

Стаж: 7 лет 7 месяцев

Сообщений: 20008

Пост Пост: #1 от 04-Авг-2014 23:25

[Цитировать]

Первый мститель: Другая войнаCaptain America: The Winter Soldier«In heroes we trust»- Страна: США
Жанр: фантастика, боевик, приключения
Год выпуска: 2014
Продолжительность: 02:15:54
Перевод: Профессиональный (дублированный)
Оригинальная аудиодорожка: английский.
Cубтитры: Russian (Forced, Blu-ray EUR), Russian (Blu-ray EUR), English (Forced), English, English (SDH)
Режиссер: Энтони Руссо / Anthony Russo, Джо Руссо / Joe Russo
В ролях:
Крис Эванс (Steve Rogers / Captain America), Скарлетт Йоханссон (Natasha Romanoff / Black Widow), Энтони Маки (Sam Wilson / Falcon), Себастьян Стэн (Bucky Barnes / Winter Soldier), Сэмюэл Л. Джексон (Nick Fury), Роберт Редфорд (Alexander Pierce), Фрэнк Грилло (Brock Rumlow), Коби Смолдерс (Maria Hill), Эмили ВанКэмп (Agent 13), Максимилиано Эрнандес (Jasper Sitwell), Хейли Этвелл (Peggy Carter), Тоби Джонс (Dr. Arnim Zola)
Дублёры: Даниил Эльдаров (Steve Rogers / Captain America), Татьяна Шитова (Natasha Romanoff / Black Widow), Алексей Черных (Sam Wilson / Falcon), Илья Бледный (Bucky Barnes / Winter Soldier), Владимир Антоник (Nick Fury), Валерий Сторожик (Alexander Pierce), Андрей Вальц (Brock Rumlow), Наталья Грачева (Maria Hill), Софья Ануфриева (Agent 13), Александр Стефанцов (Jasper Sitwell), Анастасия Жаркова (Peggy Carter), Сергей Балабанов (Dr. Arnim Zola)-Описание: После беспрецедентных событий, впервые собравших вместе команду Мстителей, Стив Роджерс, известный также как Капитан Америка, оседает в Вашингтоне и пытается приспособиться к жизни в современном мире. Но покой этому герою только снится - пытаясь помочь коллеге из агентства Щ. И. Т, Стив оказывается в центре событий, грозящих катастрофой мирового масштаба. Для того, чтобы разоблачить злодейский заговор, Капитан Америка объединяется с Черной вдовой. К ним также присоединяется новый соратник, известный как Сокол, однако никто из них даже не подозревает, на что способен новый враг.--[url=http://***/forum/viewtopic.php?t=1460328] [/url]-
MPAA: PG-13 - Детям до 13 лет просмотр не желателен-Описание: После беспрецедентных событий, впервые собравших вместе команду Мстителей, Стив Роджерс, известный также как Капитан Америка, оседает в Вашингтоне и пытается приспособиться к жизни в современном мире. Но покой этому герою только снится — пытаясь помочь коллеге из агентства Щ. И. Т, Стив оказывается в центре событий, грозящих катастрофой мирового масштаба. Для того, чтобы разоблачить злодейский заговор, Капитан Америка объединяется с Черной вдовой. К ним также присоединяется новый соратник, известный как Сокол, однако никто из них даже не подозревает, на что способен новый враг.
Качество видео: BDrip-AVC (Blu-ray EUR 1080p AVC DD5.1)
Формат видео: MKV
Видео: AVC, 1152x480 (2.40:1), 3701 kbps, 23,976 fps, 0,279 bpp
Аудио 1: русский / AC3 / 5.1 / 48 kHz / 448 kbps / Дублированный
Аудио 2: английский / AC3 / 5.1 / 48 kHz / 448 kbps / Оригинальный
Cубтитры: Russian (Forced, Blu-ray EUR), Russian (Blu-ray EUR), English (Forced), English, English (SDH)
Навигация по главам: есть (подписаны)
Сэмпл MediaInfo
General
Unique ID : 177520163476190729565155333367223275662 (0x858D23CDAD4D0EF0B612D9FAE26FD08E)
Complete name : D:\Фильмы\Captain America The Winter Soldier.2014.BDrip-AVC.Froloff777.mkv
Format : Matroska
Format version : Version 4 / Version 2
File size : 4.37 GiB
Duration : 2h 15mn
Overall bit rate : 4 599 Kbps
Encoded date : UTC 2014-08-04 16:00:37
Writing application : mkvmerge v6.1.0 ('Old Devil') built on Mar 4 2013 09:10:42
Writing library : libebml v1.3.0 + libmatroska v1.4.0
Cover : Yes
Video
ID : 1
Format : AVC
Format/Info : Advanced Video Codec
Format profile : High@L4.1
Format settings, CABAC : Yes
Format settings, ReFrames : 10 frames
Codec ID : V_MPEG4/ISO/AVC
Duration : 2h 15mn
Bit rate : 3 701 Kbps
Width : 1 152 pixels
Height : 480 pixels
Display aspect ratio : 2.40:1
Frame rate mode : Constant
Frame rate : 23.976 fps
Color space : YUV
Chroma subsampling : 4:2:0
Bit depth : 8 bits
Scan type : Progressive
Bits/(Pixel*Frame) : 0.279
Stream size : 3.43 GiB (79%)
Title : Captain America: The Winter Soldier
Writing library : x264 core 130 r2273 b3065e6
Encoding settings : cabac=1 / ref=10 / deblock=1:-2:-2 / analyse=0x3:0x113 / me=umh / subme=11 / psy=1 / psy_rd=1.00:0.05 / mixed_ref=1 / me_range=32 / chroma_me=1 / trellis=2 / 8x8dct=1 / cqm=0 / deadzone=21,11 / fast_pskip=0 / chroma_qp_offset=-3 / threads=6 / lookahead_threads=1 / sliced_threads=0 / nr=0 / decimate=0 / interlaced=0 / bluray_compat=0 / constrained_intra=0 / bframes=10 / b_pyramid=2 / b_adapt=2 / b_bias=0 / direct=3 / weightb=1 / open_gop=0 / weightp=2 / keyint=250 / keyint_min=24 / scenecut=40 / intra_refresh=0 / rc_lookahead=60 / rc=2pass / mbtree=0 / bitrate=3701 / ratetol=1.0 / qcomp=0.65 / qpmin=0 / qpmax=69 / qpstep=4 / cplxblur=20.0 / qblur=0.5 / vbv_maxrate=50000 / vbv_bufsize=62500 / nal_hrd=none / ip_ratio=1.40 / pb_ratio=1.30 / aq=2:0.90
Language : English
Default : Yes
Forced : No
Audio #1
ID : 2
Format : AC-3
Format/Info : Audio Coding 3
Mode extension : CM (complete main)
Format settings, Endianness : Big
Codec ID : A_AC3
Duration : 2h 15mn
Bit rate mode : Constant
Bit rate : 448 Kbps
Channel(s) : 6 channels
Channel positions : Front: L C R, Side: L R, LFE
Sampling rate : 48.0 KHz
Bit depth : 16 bits
Compression mode : Lossy
Stream size : 435 MiB (10%)
Title : Дублированный
Language : Russian
Default : Yes
Forced : No
Audio #2
ID : 3
Format : AC-3
Format/Info : Audio Coding 3
Mode extension : CM (complete main)
Format settings, Endianness : Big
Codec ID : A_AC3
Duration : 2h 15mn
Bit rate mode : Constant
Bit rate : 448 Kbps
Channel(s) : 6 channels
Channel positions : Front: L C R, Side: L R, LFE
Sampling rate : 48.0 KHz
Bit depth : 16 bits
Compression mode : Lossy
Stream size : 435 MiB (10%)
Language : English
Default : No
Forced : No
Text #1
ID : 4
Format : UTF-8
Codec ID : S_TEXT/UTF8
Codec ID/Info : UTF-8 Plain Text
Title : Forced
Language : Russian
Default : Yes
Forced : No
Text #2
ID : 5
Format : UTF-8
Codec ID : S_TEXT/UTF8
Codec ID/Info : UTF-8 Plain Text
Language : Russian
Default : No
Forced : No
Text #3
ID : 6
Format : UTF-8
Codec ID : S_TEXT/UTF8
Codec ID/Info : UTF-8 Plain Text
Title : Forced
Language : English
Default : No
Forced : No
Text #4
ID : 7
Format : UTF-8
Codec ID : S_TEXT/UTF8
Codec ID/Info : UTF-8 Plain Text
Language : English
Default : No
Forced : No
Text #5
ID : 8
Format : UTF-8
Codec ID : S_TEXT/UTF8
Codec ID/Info : UTF-8 Plain Text
Title : SDH
Language : English
Default : No
Forced : No
Menu
00:00:00.000 : en:Prologue
00:03:28.666 : en:Hostages on the Lemurian Star
00:13:31.727 : en:Don't Hold Your Breath
00:17:57.868 : en:Steve Visits the Smithsonian
00:22:25.302 : en:Project Insight
00:33:20.415 : en:In Pursuit
00:41:27.276 : en:Steve Meets Alexander Pierce
00:51:37.302 : en:Fugitives from S.H.I.E.L.D.
00:58:23.958 : en:Uncovering the Past
01:07:40.347 : en:Call It a Resume
01:16:22.202 : en:Facing Off with the Winter Soldier
01:24:43.078 : en:Captain's Orders
01:32:17.698 : en:13 Paying a Price
01:37:06.612 : en:Engaging
01:49:13.088 : en:The End of the Line
01:55:03.730 : en:Battle over the Potomac
02:01:11.055 : en:Life After S.H.I.E.L.D.
02:06:22.241 : en:End Credits
x264
x264 [info]: frame I:1781 Avg QP:12.49 size: 96147 PSNR Mean Y:50.56 U:53.16 V:53.30 Avg:51.27 Global:50.49
x264 [info]: frame P:52371 Avg QP:15.53 size: 35395 PSNR Mean Y:48.58 U:51.51 V:51.70 Avg:49.34 Global:48.57
x264 [info]: frame B:141353 Avg QP:17.26 size: 12360 PSNR Mean Y:47.85 U:50.70 V:51.07 Avg:48.59 Global:47.57
x264 [info]: consecutive B-frames: 6.6% 6.2% 11.8% 19.5% 15.2% 27.8% 5.4% 1.3% 2.2% 1.9% 2.3%
x264 [info]: mb I I16..4: 11.9% 64.0% 24.0%
x264 [info]: mb P I16..4: 1.9% 21.5% 2.7% P16..4: 25.3% 32.1% 12.1% 0.0% 0.0% skip: 4.5%
x264 [info]: mb B I16..4: 0.2% 2.1% 0.2% B16..8: 31.9% 25.2% 5.3% direct: 7.0% skip:28.2% L0:43.7% L1:40.7% BI:15.6%
x264 [info]: 8x8 transform intra:80.9% inter:51.1%
x264 [info]: direct mvs spatial:98.4% temporal:1.6%
x264 [info]: coded y,uvDC,uvAC intra: 90.9% 88.2% 73.9% inter: 29.7% 30.8% 20.0%
x264 [info]: i16 v,h,dc,p: 14% 13% 8% 66%
x264 [info]: i8 v,h,dc,ddl,ddr,vr,hd,vl,hu: 10% 11% 9% 9% 12% 11% 12% 12% 14%
x264 [info]: i4 v,h,dc,ddl,ddr,vr,hd,vl,hu: 10% 12% 5% 8% 15% 13% 14% 10% 13%
x264 [info]: i8c dc,h,v,p: 47% 25% 16% 13%
x264 [info]: Weighted P-Frames: Y:2.7% UV:1.3%
x264 [info]: ref P L0: 49.3% 8.9% 18.6% 6.3% 5.5% 3.3% 3.2% 1.6% 1.7% 1.3% 0.3% 0.0%
x264 [info]: ref B L0: 69.3% 14.8% 6.3% 3.4% 2.2% 1.8% 1.3% 0.6% 0.2%
x264 [info]: ref B L1: 92.4% 7.6%
x264 [info]: SSIM Mean Y:0.9887886 (19.503db)
x264 [info]: PSNR Mean Y:48.069 U:50.941 V:51.257 Avg:48.816 Global:47.841 kb/s:3700.73
x264 [total]: encoded 195505 frames, 4.80 fps, 3700.73 kb/s
Скриншоты Скриншоты сравнений
[url=http://***/forum/viewtopic.php?t=4794867]http://***/forum/viewtopic.php?t=4794867[/url]
http://screenshotcomparison.com/comparison/86461/picture:0
Сравнение с исходником
Скачать

Скачать торрент!

Как скачивать? · Что такое торрент? · Рейтинг и ограничения

Сайт не распространяет и не хранит электронные версии произведений, а лишь предоставляет доступ к создаваемому пользователями каталогу ссылок на торрент-файлы, которые содержат только списки хеш-сумм

[Профиль] [ЛС]
Показать сообщения:    
Ответить на тему

Текущее время: Сегодня 02:23

Часовой пояс: GMT + 4



Вы не можете начинать темы
Вы не можете отвечать на сообщения
Вы не можете редактировать свои сообщения
Вы не можете удалять свои сообщения
Вы не можете голосовать в опросах
Вы не можете прикреплять файлы к сообщениям
Вы не можете скачивать файлы