Спецназ против самураев: мисия 1549 / Samurai Commando: mission 1549 / Sengoku jieitai 1549 (Масааки Тецука / Masaaki Tezuka) [2005, Япония, фантастика, боевик, DVDRip] DVO + Sub Rus + Original Jap

Ответить на тему
 
Автор Сообщение

user ®

Стаж: 13 лет

Сообщений: 15071

Пост Пост: #1 от 04-Авг-2014 07:10

[Цитировать]

Спецназ против самураев: мисия 1549 / Samurai Commando: mission 1549 / Sengoku jieitai 1549
Страна: Япония
Жанр: фантастика, боевик
Год выпуска: 2005
Продолжительность: 01:27:28
Перевод: Профессиональный (двухголосый закадровый)
Cубтитры: русские (srt)
Оригинальная аудиодорожка: японский
Режиссер: Масааки Тецука / Masaaki Tezuka
В ролях: Юсуке Егучи, Куока Сузуки, Харука Аясе, Казуки Китамура
Описание: В результате строго засекреченного эксперимента с электромагнитным полем группа солдат была случайно заброшена в прошлое, в 1549 год.
Правительству удалось скрыть этот инцидент, но спустя годы, когда технические возможности позволили это сделать, в прошлое был послан военный отряд под кодовым названием «Ромео» чтобы спасти мир от разрушения и выручить своих пропавших товарищей. Прибыв в 16-й век, спецотряд узнал, что командир предыдущей группы, полковник Матоба, попытался изменить ход истории, превратив Японию в доминирующую супердержаву.
Можно ли его остановить? И, если нет, как повлияет изменение прошлого на будущее? Спецгруппе понадобится гораздо больше чем просто везение, чтобы вернуться назад в будущее…
Сэмпл: http://multi-up.com/990324
Качество видео: DVDRip (DVD-5)
Формат видео: AVI
Видео: XviD, 1986 kbps, 704 х 400 pixels, 25.000 fps
Аудио 1: AC3, 384 Kbps, 6 channels, Front: L C R, Side: L R, LFE, 48.0 KHz, 16 bits - Rus
Аудио 2: AC3, 384 Kbps, 6 channels, Front: L C R, Side: L R, LFE, 48.0 KHz, 16 bits - Jap (отдельным файлом)

MediaInfo
General
Complete name : D:\Samurai Commando. mission 1549\Samurai.Commando.2005.DVDRip.1.45Gb.avi
Format : AVI
Format/Info : Audio Video Interleave
File size : 1.45 GiB
Duration : 1h 27mn
Overall bit rate : 2 379 Kbps
Writing application : VirtualDubMod 1.5.10.3 | www.virtualdub-fr.org || (build 2550/release)
Writing library : VirtualDubMod build 2550/release
Video
ID : 0
Format : MPEG-4 Visual
Format profile : Advanced Simple@L5
Format settings, BVOP : Yes
Format settings, QPel : No
Format settings, GMC : No warppoints
Format settings, Matrix : Default (MPEG)
Codec ID : XVID
Codec ID/Hint : XviD
Duration : 1h 27mn
Bit rate : 1 986 Kbps
Width : 704 pixels
Height : 400 pixels
Display aspect ratio : 16:9
Frame rate : 25.000 fps
Color space : YUV
Chroma subsampling : 4:2:0
Bit depth : 8 bits
Scan type : Progressive
Compression mode : Lossy
Bits/(Pixel*Frame) : 0.282
Stream size : 1.21 GiB (83%)
Writing library : XviD 73
Audio
ID : 1
Format : AC-3
Format/Info : Audio Coding 3
Mode extension : CM (complete main)
Format settings, Endianness : Big
Codec ID : 2000
Duration : 1h 27mn
Bit rate mode : Constant
Bit rate : 384 Kbps
Channel(s) : 6 channels
Channel positions : Front: L C R, Side: L R, LFE
Sampling rate : 48.0 KHz
Bit depth : 16 bits
Compression mode : Lossy
Stream size : 240 MiB (16%)
Alignment : Split accross interleaves
Interleave, duration : 40 ms (1.00 video frame)
Interleave, preload duration : 500 ms
Скриншот c названием фильма Скриншоты
Скачать

Скачать торрент! Спецназ против самураев: мисия 1549 / Samurai Commando: mission 1549 / Sengoku jieitai 1549 (Масааки Тецука / Masaaki Tezuka) [2005, Япония, фантастика, боевик, DVDRip] DVO + Sub Rus + Original Jap

Как скачивать? · Что такое торрент? · Рейтинг и ограничения

Сайт не распространяет и не хранит электронные версии произведений, а лишь предоставляет доступ к создаваемому пользователями каталогу ссылок на торрент-файлы, которые содержат только списки хеш-сумм

[Профиль] [ЛС]
Показать сообщения:    
Ответить на тему

Текущее время: Сегодня 16:32

Часовой пояс: GMT + 4



Вы не можете начинать темы
Вы не можете отвечать на сообщения
Вы не можете редактировать свои сообщения
Вы не можете удалять свои сообщения
Вы не можете голосовать в опросах
Вы не можете прикреплять файлы к сообщениям
Вы не можете скачивать файлы