Укус мертвецов / Dead bite / Gancore Gud (Аписит Опасаймликит / Apisit Opasaimlikit) [2011, Таиланд, ужасы, триллер, комедия, DVDRip] VO (den904)

Ответить на тему
 
Автор Сообщение

user ®

Стаж: 13 лет

Сообщений: 15071

Пост Пост: #1 от 04-Авг-2014 07:10

[Цитировать]

Укус мертвецов / Dead bite / Gancore Gud
Страна: Таиланд
Жанр: ужасы, триллер, комедия
Год выпуска: 2011
Продолжительность: 01:34:08
Перевод: Одноголосый закадровый [den904] - перевод на русский язык [Ворон] - работа со звуком [Гуннлауг]
Cубтитры: нет
Оригинальная аудиодорожка: да
Режиссер: Аписит Опасаймликит / Apisit Opasaimlikit
В ролях: Аписит Опасаймликит, Нати Аеквиджит, Суранан Чумтараторн, Киттипонг Кламсат, Нуттавут Сримавк, Витчапан Наркпрасом, Кумико Сугахо, Лакана Ваттанавонгсири, Пакчжира Визававизут.
Описание: Начинающая рэп-команда в поисках популярности гастролирует по всем городам и деревням Тайского полуострова. Остается последний рубеж - бикини-вечеринка на необитаемом острове. А дальше - Голливуд, МTV... Слава! Деньги! Но остров оказывается не таким уж необитаемым. Ведь там, где знают о проклятии Нингё, оживает всё то, что когда-то было мёртвым и несёт на своих острых клыках проклятие укуса мертвецов. Чёрная комедия, снятая лидером тайской рэп-команды GunCore Джое Боем. Фильм изобилует ненормативной лексикой, убойными шутками и сценами откровенного насилия под острым тайским соусом. Любителям "Шона против мертвецов", "Хуана" - смотреть обязательно! (by Ворон)



смотреть РУССКИЙ ТРЕЙЛЕР к фильму на youtube
скачать СЕМПЛ с multi-up
Качество видео: DVDRip
Формат видео: AVI
Видео: 720x304 (2.37:1), 25 fps, XviD MPEG-4 ~1493 kbps avg, 0.27 bit/pixel
Аудио #1: 48 kHz, AC3 Dolby Digital, 2/0 (L,R) ch, ~192 kbps [rus]
Аудио #2: 48 kHz, MPEG Layer 3, 2 ch, ~64.00 kbps avg [eng]
MediaInfo
X:\Dead_Bite.2011-DVDRip.KOLOBOK.avi
General
Complete name : X:\Dead_Bite.2011-DVDRip.KOLOBOK.avi
Format : AVI
Format/Info : Audio Video Interleave
File size : 1.16 GiB
Duration : 1h 34mn
Overall bit rate : 1 765 Kbps
Writing application : VirtualDubMod 1.5.10.3 | www.virtualdub-fr.org || (build 2550/release)
Writing library : VirtualDubMod build 2550/release
Video #0
ID : 0
Format : xvid
Codec ID : xvid
Duration : 1h 34mn
Bit rate : 1 495 Kbps
Width : 720 pixels
Height : 304 pixels
Display aspect ratio : 2.35:1
Frame rate : 25.000 fps
Bits/(Pixel*Frame) : 0.273
Stream size : 1 007 MiB (85%)
Audio #1
ID : 1
Format : AC-3
Format/Info : Audio Coding 3
Mode extension : CM (complete main)
Codec ID : 2000
Duration : 1h 34mn
Bit rate mode : Constant
Bit rate : 192 Kbps
Channel(s) : 2 channels
Channel positions : Front: L R
Sampling rate : 48.0 KHz
Bit depth : 16 bits
Compression mode : Lossy
Stream size : 129 MiB (11%)
Alignment : Split accross interleaves
Interleave, duration : 40 ms (1.00 video frame)
Interleave, preload duration : 500 ms
Audio #2
ID : 2
Format : MPEG Audio
Format version : Version 1
Format profile : Layer 3
Mode : Joint stereo
Mode extension : MS Stereo
Codec ID : 55
Codec ID/Hint : MP3
Duration : 1h 34mn
Bit rate mode : Constant
Bit rate : 64.0 Kbps
Channel(s) : 2 channels
Sampling rate : 48.0 KHz
Compression mode : Lossy
Stream size : 43.1 MiB (4%)
Alignment : Split accross interleaves
Interleave, duration : 40 ms (1.00 video frame)
Interleave, preload duration : 500 ms
Скриншот c названием фильма Скриншоты Релиз от:
Скачать

Скачать торрент! Укус мертвецов / Dead bite / Gancore Gud (Аписит Опасаймликит / Apisit Opasaimlikit) [2011, Таиланд, ужасы, триллер, комедия, DVDRip] VO (den904)

Как скачивать? · Что такое торрент? · Рейтинг и ограничения

Сайт не распространяет и не хранит электронные версии произведений, а лишь предоставляет доступ к создаваемому пользователями каталогу ссылок на торрент-файлы, которые содержат только списки хеш-сумм

[Профиль] [ЛС]
Показать сообщения:    
Ответить на тему

Текущее время: Сегодня 21:26

Часовой пояс: GMT + 4



Вы не можете начинать темы
Вы не можете отвечать на сообщения
Вы не можете редактировать свои сообщения
Вы не можете удалять свои сообщения
Вы не можете голосовать в опросах
Вы не можете прикреплять файлы к сообщениям
Вы не можете скачивать файлы