Лeгендa NI7 (Николай Лебедев) [2013, Россия, Спорт, драма, биография, BDRip-AVC]

Ответить на тему
 
Автор Сообщение

user ®

Стаж: 7 лет 7 месяцев

Сообщений: 20008

Пост Пост: #1 от 04-Авг-2014 01:00

[Цитировать]

Лeгендa NI7- Страна: Россия | Канал Россия, Студия Тритэ
Жанр: Спорт, драма, биография
Год выпуска: 2013
Продолжительность: 02:13:53 час.
Перевод: Не требуется
Субтитры: Отсутствуют
Оригинальная аудиодорожка: Русская
Режиссер: Николай Лебедев
В ролях: Данила Козловский, Олег Меньшиков, Владимир Меньшов, Роман Мадянов, Светлана Иванова, Алехандра Грепи, Борис Щербаков, Гёц Отто, Александр Лобанов, Валентин Смирнитский
Описание: 2 сентября 1972 года. Монреаль. Хоккейная сборная СССР с разгромным счетом 7:3 победила канадских профессионалов из НХЛ в стартовом матче эпохальной Суперсерии СССР-Канада. Это была не просто игра, это была битва за свою страну, которая перевернула мировое представление о хоккее. Теперь весь мир знал его просто по номеру «17». Валерий Харламов, забивший в том матче 2 шайбы, мгновенно взлетел на вершину славы. Сбылась его мечта -упорство, спортивный талант и суровые уроки великого тренера Анатолия Тарасова сделали из «номера 17» легенду мирового хоккея.

Качество видео: BDRip-AVC => Сэмпл | исх. Легенда №17 (2013) Blu-ray 1080p AVC DTS-HD 5.1 - HDCLUB
Формат видео: MKV
Релиз от RG MATROSKA & tRuAVC
Автор рипа zOJIOtOi
Видео: 1194x500p (2.40:1), 24,000 fps, H.264 ~4 424 kbps avg, 0.302 bit/pixel
Аудио: 48 kHz, AC3, 3/2 (L,C,R,l,r) + LFE ch, ~448.00 kbps avg | Оригинал (русский)
MediaInfo | log x264
log x264
x264 [info]: 1194x500p 1:1 @ 24/1 fps (cfr)
x264 [info]: using SAR=1/1
x264 [info]: using cpu capabilities: MMX2 SSE2Fast SSSE3 SSE4.2 AVX
x264 [info]: profile High, level 4.1
x264 [info]: cabac=1 ref=11 deblock=1:-2:-1 analyse=0x3:0x133 me=umh subme=11 psy=1 fade_compensate=0.00 psy_rd=1.00:0.00 mixed_ref=1 me_range=48 chroma_me=1 trellis=2 8x8dct=1 cqm=0 deadzone=21,11 fast_pskip=0 chroma_qp_offset=-2 threads=8 lookahead_threads=2 sliced_threads=0 nr=0 decimate=1 interlaced=0 bluray_compat=0 constrained_intra=0 fgo=0 bframes=10 b_pyramid=2 b_adapt=2 b_bias=0 direct=1 weightb=1 open_gop=0 weightp=2 keyint=250 keyint_min=24 scenecut=40 intra_refresh=0 rc_lookahead=60 rc=crf mbtree=0 crf=19.5000 qcomp=0.70 qpmin=0 qpmax=69 qpstep=4 vbv_maxrate=50000 vbv_bufsize=62500 crf_max=0.0 nal_hrd=none filler=0 ip_ratio=1.40 pb_ratio=1.20 aq=1:1.05
x264 [info]: frame I:1429 Avg QP:18.13 size: 81885
x264 [info]: frame P:51750 Avg QP:20.06 size: 33386
x264 [info]: frame B:139626 Avg QP:21.74 size: 18608
x264 [info]: consecutive B-frames: 5.1% 6.0% 11.8% 30.8% 16.0% 20.5% 3.4% 2.9% 1.5% 1.5% 0.5%
x264 [info]: mb I I16..4: 4.1% 77.7% 18.2%
x264 [info]: mb P I16..4: 2.4% 26.4% 4.3% P16..4: 25.7% 27.9% 7.9% 1.0% 0.1% skip: 4.4%
x264 [info]: mb B I16..4: 0.6% 5.7% 0.7% B16..8: 35.7% 21.9% 3.9% direct:10.2% skip:21.2% L0:41.5% L1:45.3% BI:13.2%
x264 [info]: 8x8 transform intra:80.3% inter:63.1%
x264 [info]: coded y,uvDC,uvAC intra: 81.5% 84.6% 58.1% inter: 39.4% 38.8% 5.2%
x264 [info]: i16 v,h,dc,p: 20% 23% 4% 53%
x264 [info]: i8 v,h,dc,ddl,ddr,vr,hd,vl,hu: 10% 9% 9% 9% 12% 12% 13% 11% 14%
x264 [info]: i4 v,h,dc,ddl,ddr,vr,hd,vl,hu: 26% 11% 8% 6% 10% 10% 11% 8% 11%
x264 [info]: i8c dc,h,v,p: 34% 30% 18% 18%
x264 [info]: Weighted P-Frames: Y:3.0% UV:2.0%
x264 [info]: ref P L0: 48.9% 11.6% 16.1% 6.2% 4.6% 3.5% 2.9% 1.9% 1.5% 1.3% 1.2% 0.3% 0.0%
x264 [info]: ref B L0: 76.0% 10.9% 4.9% 2.4% 1.8% 1.4% 1.2% 0.7% 0.4% 0.2%
x264 [info]: ref B L1: 93.1% 6.9%
x264 [info]: kb/s:4424.34
x264 [info]: encoded 192805 frames, 2.00 fps, 4424.34 kb/s
Общее
Уникальный идентификатор : 254562407297567361652070104571863457188 (0xBF82EFB0E55F17B0B405038A585D5DA4)
Полное имя : D:\my rips\Legenda.17.2013.BDRip-AVC.by.zOJIOtOi.mkv
Формат : Matroska
Версия формата : Version 4 / Version 2
Размер файла : 4,56 Гбайт
Продолжительность : 2 ч. 13 м.
Общий поток : 4874 Кбит/сек
Дата кодирования : UTC 2014-08-03 12:18:44
Программа кодирования : mkvmerge v7.0.0 ('Where We Going') 64bit built on Jun 9 2014 15:16:27
Библиотека кодирования : libebml v1.3.0 + libmatroska v1.4.1
DURATION : 02:13:53.568000000
NUMBER_OF_FRAMES : 251049
NUMBER_OF_BYTES : 449879808
_STATISTICS_WRITING_APP : mkvmerge v7.0.0 ('Where We Going') 64bit built on Jun 9 2014 15:16:27
_STATISTICS_WRITING_DATE_UTC : 2014-08-03 12:18:44
_STATISTICS_TAGS : BPS DURATION NUMBER_OF_FRAMES NUMBER_OF_BYTES
Видео
Идентификатор : 1
Формат : AVC
Формат/Информация : Advanced Video Codec
Профиль формата : High@L4.1
Параметр CABAC формата : Да
Параметр ReFrames формата : 11 кадров
Идентификатор кодека : V_MPEG4/ISO/AVC
Продолжительность : 2 ч. 13 м.
Битрейт : 4329 Кбит/сек
Ширина : 1194 пикселя
Высота : 500 пикселей
Соотношение сторон : 2,40:1
Режим частоты кадров : Постоянный
Частота кадров : 24,000 кадра/сек
Цветовое пространство : YUV
Субдискретизация насыщенности : 4:2:0
Битовая глубина : 8 бит
Тип развёртки : Прогрессивная
Бит/(Пиксели*Кадры) : 0.302
Размер потока : 4,05 Гбайт (89%)
Заголовок : Legenda.17.2013.BDRip-AVC.by.zOJIOtOi
Библиотека кодирования : x264 core 142 r2453kMod ea0ca51
Настройки программы : cabac=1 / ref=11 / deblock=1:-2:-1 / analyse=0x3:0x133 / me=umh / subme=11 / psy=1 / fade_compensate=0.00 / psy_rd=1.00:0.00 / mixed_ref=1 / me_range=48 / chroma_me=1 / trellis=2 / 8x8dct=1 / cqm=0 / deadzone=21,11 / fast_pskip=0 / chroma_qp_offset=-2 / threads=8 / lookahead_threads=2 / sliced_threads=0 / nr=0 / decimate=1 / interlaced=0 / bluray_compat=0 / constrained_intra=0 / fgo=0 / bframes=10 / b_pyramid=2 / b_adapt=2 / b_bias=0 / direct=1 / weightb=1 / open_gop=0 / weightp=2 / keyint=250 / keyint_min=24 / scenecut=40 / intra_refresh=0 / rc_lookahead=60 / rc=crf / mbtree=0 / crf=19.5000 / qcomp=0.70 / qpmin=0 / qpmax=69 / qpstep=4 / vbv_maxrate=50000 / vbv_bufsize=62500 / crf_max=0.0 / nal_hrd=none / filler=0 / ip_ratio=1.40 / pb_ratio=1.20 / aq=1:1.05
Язык : Russian
Default : Да
Forced : Нет
DURATION : 02:13:53.542000000
NUMBER_OF_FRAMES : 192805
NUMBER_OF_BYTES : 4442891274
_STATISTICS_WRITING_APP : mkvmerge v7.0.0 ('Where We Going') 64bit built on Jun 9 2014 15:16:27
_STATISTICS_WRITING_DATE_UTC : 2014-08-03 12:18:44
_STATISTICS_TAGS : BPS DURATION NUMBER_OF_FRAMES NUMBER_OF_BYTES
Коэффициенты матрицы : BT.709
Аудио
Идентификатор : 2
Формат : AC-3
Формат/Информация : Audio Coding 3
Расширение режима : CM (complete main)
Параметр Endianness формата : Big
Идентификатор кодека : A_AC3
Продолжительность : 2 ч. 13 м.
Вид битрейта : Постоянный
Битрейт : 448 Кбит/сек
Каналы : 6 каналов
Расположение каналов : Front: L C R, Side: L R, LFE
Частота : 48,0 КГц
Битовая глубина : 16 бит
Метод сжатия : С потерями
Размер потока : 429 Мбайт (9%)
Заголовок : DD 5.1 @ 448 kbps
Язык : Russian
Default : Да
Forced : Да
Source vs rip by zOJIOtOi
---------------------------------------------------------------------------source---------------------------------------------------------------------------

----------------------------------------------------------------------rip by zOJIOtOi----------------------------------------------------------------------
Скриншот c названием фильма Скриншоты
Скачать

Скачать торрент!

Как скачивать? · Что такое торрент? · Рейтинг и ограничения

Сайт не распространяет и не хранит электронные версии произведений, а лишь предоставляет доступ к создаваемому пользователями каталогу ссылок на торрент-файлы, которые содержат только списки хеш-сумм

[Профиль] [ЛС]
Показать сообщения:    
Ответить на тему

Текущее время: Сегодня 04:14

Часовой пояс: GMT + 4



Вы не можете начинать темы
Вы не можете отвечать на сообщения
Вы не можете редактировать свои сообщения
Вы не можете удалять свои сообщения
Вы не можете голосовать в опросах
Вы не можете прикреплять файлы к сообщениям
Вы не можете скачивать файлы