Трансамерика / Transamerica (Дункан Таккер / Duncan Tucker) [2005, США, драма, комедия, приключения, BDRip 720p] MVO (ИНИС) + DVO + Sub Rus, Eng + Original Eng

Ответить на тему
 
Автор Сообщение

user ®

Стаж: 7 лет 7 месяцев

Сообщений: 20008

Пост Пост: #1 от 03-Авг-2014 18:40

[Цитировать]

Трансамерика / Transamerica
Страна: США
Студия: Belladonna Productions
Жанр: драма, комедия, приключения
Год выпуска: 2005
Продолжительность: 01:43:15
Перевод: Профессиональный (многоголосый закадровый) - студия ИНИС, по заказу Союз-Видео
Перевод 2: Профессиональный (двухголосый закадровый)
Cубтитры: русские, английские
Оригинальная аудиодорожка: английский
Режиссер: Дункан Таккер / Duncan Tucker
В ролях: Фелисити Хаффман, Кевин Зегерс, Фионнула Флэнаган, Берт Янг, Элизабет Пенья, Грэм Грин, Андреа Джеймс, Дэнни Бурстейн, Морис Ороско, Крэйг Бокхорн
Описание: Бри — транссексуал, который копит на последнюю операцию, которая наконец полностью превратит его в женщину. У него 2 работы и он откладывает каждый пенни на операцию. Однажды в его квартире раздается звонок — на том конце провода его сын Тоби, плод его мимолетного увлечения много лет назад. Тоби в Нью-Йорке, и Бри летит из Лос-Анжелеса к нему, чтобы вызволить того из тюрьмы, куда он попал по собственной глупости.
Сначала он сомневается, стоит ли ему это делать ради парня, которого даже не знает, но его врач советует ему не бояться прошлого. Парня отдают ему без каких-либо объяснений, но очень скоро Бри понимает, что все, что хочет Тоби — это сбежать и автостопом отправиться в Лос-Анжелес. Он убеждает его поехать вместе, думая, что сможет оставить парня у его отчима по дороге. Но путь долгий, и за время пути они ближе знакомятся друг с другом…
Сэмпл: http://multi-up.com/989865
Тип релиза: BDRip 720p
Контейнер: MKV
Видео: MPEG4 Video (H264) 1280x694 (83:45) 24fps 12.7 Mbps
Аудио: Русский AC-3 6 ch 48.0 KHz 448 Kbps
Аудио 2: Русский AC-3 6 ch 48.0 KHz 448 Kbps
Аудио 3: Английский AC-3 5 ch 48.0 KHz 448 Kbps
Формат субтитров: softsub (SRT)
MediaInfo
General
Unique ID : 191197501891137939976914269974280555172 (0x8FD74CA6AF782602B18F6BA038EC4AA4)
Complete name : D:\Transamerica.2005.BDRip.720p.mkv
Format : Matroska
Format version : Version 4 / Version 2
File size : 10.3 GiB
Duration : 1h 43mn
Overall bit rate : 14.3 Mbps
Encoded date : UTC 2014-07-31 11:45:43
Writing application : mkvmerge v6.9.1 ('Blue Panther') 64bit built on Apr 18 2014 18:23:38
Writing library : libebml v1.3.0 + libmatroska v1.4.1
Video
ID : 1
Format : AVC
Format/Info : Advanced Video Codec
Format profile : High@L4.1
Format settings, CABAC : Yes
Format settings, ReFrames : 9 frames
Codec ID : V_MPEG4/ISO/AVC
Duration : 1h 43mn
Bit rate : 12.7 Mbps
Width : 1 280 pixels
Height : 694 pixels
Display aspect ratio : 1.85:1
Frame rate mode : Constant
Frame rate : 24.000 fps
Color space : YUV
Chroma subsampling : 4:2:0
Bit depth : 8 bits
Scan type : Progressive
Bits/(Pixel*Frame) : 0.594
Stream size : 9.14 GiB (89%)
Writing library : x264 core 116 r2057 0ba8a9c
Encoding settings : cabac=1 / ref=9 / deblock=1:-3:-3 / analyse=0x3:0x133 / me=umh / subme=10 / psy=1 / psy_rd=1.00:0.00 / mixed_ref=1 / me_range=32 / chroma_me=1 / trellis=2 / 8x8dct=1 / cqm=0 / deadzone=21,11 / fast_pskip=0 / chroma_qp_offset=-2 / threads=18 / sliced_threads=0 / nr=0 / decimate=0 / interlaced=0 / bluray_compat=0 / constrained_intra=0 / bframes=7 / b_pyramid=2 / b_adapt=2 / b_bias=0 / direct=3 / weightb=1 / open_gop=0 / weightp=2 / keyint=250 / keyint_min=24 / scenecut=40 / intra_refresh=0 / rc_lookahead=40 / rc=crf / mbtree=0 / crf=17.0 / qcomp=0.65 / qpmin=0 / qpmax=40 / qpstep=4 / vbv_maxrate=50000 / vbv_bufsize=50000 / crf_max=0.0 / nal_hrd=none / ip_ratio=1.25 / pb_ratio=1.25 / aq=1:0.65
Language : English
Default : Yes
Forced : No
Audio #1
ID : 2
Format : AC-3
Format/Info : Audio Coding 3
Mode extension : CM (complete main)
Format settings, Endianness : Big
Codec ID : A_AC3
Duration : 1h 43mn
Bit rate mode : Constant
Bit rate : 448 Kbps
Channel count : 6 channels
Channel positions : Front: L C R, Side: L R, LFE
Sampling rate : 48.0 KHz
Bit depth : 16 bits
Compression mode : Lossy
Stream size : 331 MiB (3%)
Title : MVO
Language : Russian
Default : Yes
Forced : No
Audio #2
ID : 3
Format : AC-3
Format/Info : Audio Coding 3
Mode extension : CM (complete main)
Format settings, Endianness : Big
Codec ID : A_AC3
Duration : 1h 43mn
Bit rate mode : Constant
Bit rate : 448 Kbps
Channel count : 6 channels
Channel positions : Front: L C R, Side: L R, LFE
Sampling rate : 48.0 KHz
Bit depth : 16 bits
Compression mode : Lossy
Stream size : 331 MiB (3%)
Title : DVO
Language : Russian
Default : No
Forced : No
Audio #3
ID : 4
Format : AC-3
Format/Info : Audio Coding 3
Mode extension : CM (complete main)
Format settings, Endianness : Big
Codec ID : A_AC3
Duration : 1h 43mn
Bit rate mode : Constant
Bit rate : 448 Kbps
Channel count : 5 channels
Channel positions : Front: L C R, Side: L R
Sampling rate : 48.0 KHz
Bit depth : 16 bits
Compression mode : Lossy
Stream size : 331 MiB (3%)
Language : English
Default : No
Forced : No
Text #1
ID : 5
Format : UTF-8
Codec ID : S_TEXT/UTF8
Codec ID/Info : UTF-8 Plain Text
Language : Russian
Default : Yes
Forced : No
Text #2
ID : 6
Format : UTF-8
Codec ID : S_TEXT/UTF8
Codec ID/Info : UTF-8 Plain Text
Language : English
Default : No
Forced : No
Menu
00:00:00.000 : en:00:00:00.000
00:04:36.958 : en:00:04:36.958
00:09:57.750 : en:00:09:57.750
00:17:15.292 : en:00:17:15.292
00:22:02.542 : en:00:22:02.542
00:29:51.958 : en:00:29:51.958
00:35:21.167 : en:00:35:21.167
00:41:17.958 : en:00:41:17.958
00:46:51.667 : en:00:46:51.667
00:50:27.292 : en:00:50:27.292
00:55:56.875 : en:00:55:56.875
01:00:22.208 : en:01:00:22.208
01:07:00.583 : en:01:07:00.583
01:22:21.708 : en:01:22:21.708
01:29:08.875 : en:01:29:08.875
01:33:12.500 : en:01:33:12.500
Скриншоты
Скачать

Скачать торрент!

Как скачивать? · Что такое торрент? · Рейтинг и ограничения

Сайт не распространяет и не хранит электронные версии произведений, а лишь предоставляет доступ к создаваемому пользователями каталогу ссылок на торрент-файлы, которые содержат только списки хеш-сумм

[Профиль] [ЛС]
Показать сообщения:    
Ответить на тему

Текущее время: Сегодня 22:19

Часовой пояс: GMT + 4



Вы не можете начинать темы
Вы не можете отвечать на сообщения
Вы не можете редактировать свои сообщения
Вы не можете удалять свои сообщения
Вы не можете голосовать в опросах
Вы не можете прикреплять файлы к сообщениям
Вы не можете скачивать файлы