Первый мститель: Другая война / Captain America: The Winter Soldier (Энтони Руссо / Anthony Russo, Джо Руссо / Joe Russo) [2014 г., США, фантастика, боевик, приключения, BDRip 720p] Dub (EUR) + Original Eng + Sub (Rus, Eng)

Ответить на тему
 
Автор Сообщение

user ®

Стаж: 7 лет 7 месяцев

Сообщений: 20008

Пост Пост: #1 от 03-Авг-2014 18:40

[Цитировать]

-Первый мститель: Другая война / Captain America: The Winter Soldier«В героев мы верим» Страна: США
Студия: Marvel Entertainment, Marvel Studios
Жанр: Фантастика, боевик, приключения
Год выпуска: 2014
Продолжительность: 02:15:54-Перевод: Профессиональный (полное дублирование)
Оригинальная аудиодорожка: английский
Cубтитры: русские, английские
Режиссер: Энтони Руссо / Anthony Russo, Джо Руссо / Joe Russo
В ролях: Крис Эванс, Скарлетт Йоханссон, Энтони Маки, Себастьян Стэн, Сэмюэл Л. Джексон, Роберт Редфорд, Фрэнк Грилло, Коби Смолдерс, Эмили ВанКэмп, Максимилиано Эрнандес
Описание: После беспрецедентных событий, впервые собравших вместе команду Мстителей, Стив Роджерс, известный также как Капитан Америка, оседает в Вашингтоне и пытается приспособиться к жизни в современном мире. Но покой этому герою только снится — пытаясь помочь коллеге из агентства Щ. И. Т, Стив оказывается в центре событий, грозящих катастрофой мирового масштаба. Для того, чтобы разоблачить злодейский заговор, Капитан Америка объединяется с Черной вдовой. К ним также присоединяется новый соратник, известный как Сокол, однако никто из них даже не подозревает, на что способен новый враг.-
Сэмпл: скачать-Релиз от -
Автор рипа: Elheym
Качество: BDRip 720p (источник: / Blu-ray Disc EUR / 1080p)
Контейнер: MKV
Видео: 1280x534 (2.40:1), 23.976 fps, MPEG-4 AVC, ~4950 kbps avg, 0.302 bit/pixel
Аудио #1: Русский: АС3, 5.1, 48 kHz, ~640 Кбит/с | Профессиональный (полное дублирование) |
Аудио #2: Английский: DTS, 5.1, 48 kHz, ~1509 Кбит/с | Оригинал |
Субтитры: Русские (полные, форсированные), Английские (полные SDH)
Главы: Присутствуют, сохранены оригинальные
Размер: 6.74 GB
MediaInfo
Уникальный идентификатор : 241982380735750565081735054958634483450 (0xB60C1C7EA2C61DB7895B725237903EFA)
Полное имя : Captain.America.The Winter.Soldier.2014.720p.BluRay.Rus.Eng.-HQCLUB.mkv
Формат : Matroska
Версия формата : Version 2
Размер файла : 6,74 Гбайт
Продолжительность : 2 ч. 15 м.
Общий поток : 7101 Кбит/сек
Дата кодирования : UTC 2014-08-02 13:02:51
Программа кодирования : mkvmerge v5.2.0 ('I can't explain') built on Dec 18 2011 18:12:03
Библиотека кодирования : libebml v1.2.3 + libmatroska v1.3.0
Видео
Идентификатор : 1
Формат : AVC
Формат/Информация : Advanced Video Codec
Профиль формата : High@L4.1
Параметр CABAC формата : Да
Параметр ReFrames формата : 9 кадров
Идентификатор кодека : V_MPEG4/ISO/AVC
Продолжительность : 2 ч. 15 м.
Битрейт : 4950 Кбит/сек
Ширина : 1280 пикселей
Высота : 534 пикселя
Соотношение сторон : 2,40:1
Режим частоты кадров : Постоянный
Частота кадров : 23,976 кадра/сек
Цветовое пространство : YUV
Субдискретизация насыщенности : 4:2:0
Битовая глубина : 8 бит
Тип развёртки : Прогрессивная
Бит/(Пиксели*Кадры) : 0.302
Размер потока : 4,57 Гбайт (68%)
Заголовок : Первый мститель: Другая война / Captain America: The Winter Soldier (2014) BDRip 720p by HQCLUB [Elheym]
Библиотека кодирования : x264 core 142 r2431 ac76440
Настройки программы : cabac=1 / ref=10 / deblock=1:-3:-2 / analyse=0x3:0x113 / me=umh / subme=11 / psy=1 / psy_rd=1.00:0.03 / mixed_ref=1 / me_range=32 / chroma_me=1 / trellis=2 / 8x8dct=1 / cqm=0 / deadzone=21,11 / fast_pskip=1 / chroma_qp_offset=-5 / threads=6 / lookahead_threads=1 / sliced_threads=0 / nr=0 / decimate=1 / interlaced=0 / bluray_compat=0 / constrained_intra=0 / bframes=13 / b_pyramid=1 / b_adapt=2 / b_bias=0 / direct=3 / weightb=1 / open_gop=0 / weightp=2 / keyint=240 / keyint_min=23 / scenecut=40 / intra_refresh=0 / rc_lookahead=40 / rc=2pass / mbtree=0 / bitrate=4950 / ratetol=1.0 / qcomp=0.60 / qpmin=10 / qpmax=69 / qpstep=4 / cplxblur=20.0 / qblur=0.5 / vbv_maxrate=50000 / vbv_bufsize=62500 / nal_hrd=none / filler=0 / ip_ratio=1.40 / pb_ratio=1.30 / aq=1:0.80
Язык : English
Default : Да
Forced : Нет
Аудио #1
Идентификатор : 2
Формат : AC-3
Формат/Информация : Audio Coding 3
Расширение режима : CM (complete main)
Параметр Endianness формата : Big
Идентификатор кодека : A_AC3
Продолжительность : 2 ч. 15 м.
Вид битрейта : Постоянный
Битрейт : 640 Кбит/сек
Каналы : 6 каналов
Расположение каналов : Front: L C R, Side: L R, LFE
Частота : 48,0 КГц
Битовая глубина : 16 бит
Метод сжатия : С потерями
Размер потока : 622 Мбайт (9%)
Заголовок : АС3 5.1 @ 640 kbps - Dub, EUR
Язык : Russian
Default : Нет
Forced : Нет
Аудио #2
Идентификатор : 3
Формат : DTS
Формат/Информация : Digital Theater Systems
Режим : 16
Параметр Endianness формата : Big
Идентификатор кодека : A_DTS
Продолжительность : 2 ч. 15 м.
Вид битрейта : Постоянный
Битрейт : 1509 Кбит/сек
Каналы : 6 каналов
Расположение каналов : Front: L C R, Side: L R, LFE
Частота : 48,0 КГц
Битовая глубина : 24 бит
Метод сжатия : С потерями
Размер потока : 1,43 Гбайт (21%)
Заголовок : DTS 5.1 @ 1509 kbps - Original
Язык : English
Default : Нет
Forced : Нет
Текст #1
Идентификатор : 4
Формат : UTF-8
Идентификатор кодека : S_TEXT/UTF8
Идентификатор кодека/Информация : UTF-8 Plain Text
Заголовок : Full
Язык : Russian
Default : Нет
Forced : Нет
Текст #2
Идентификатор : 5
Формат : UTF-8
Идентификатор кодека : S_TEXT/UTF8
Идентификатор кодека/Информация : UTF-8 Plain Text
Заголовок : Forced
Язык : Russian
Default : Нет
Forced : Нет
Текст #3
Идентификатор : 6
Формат : UTF-8
Идентификатор кодека : S_TEXT/UTF8
Идентификатор кодека/Информация : UTF-8 Plain Text
Заголовок : Full SDH
Язык : English
Default : Нет
Forced : Нет
Меню
00:00:00.000 : :Chapter 01
00:03:28.666 : :Chapter 02
00:13:31.727 : :Chapter 03
00:17:57.868 : :Chapter 04
00:22:25.302 : :Chapter 05
00:33:20.415 : :Chapter 06
00:41:27.276 : :Chapter 07
00:51:37.302 : :Chapter 08
00:58:23.958 : :Chapter 09
01:07:40.347 : :Chapter 10
01:16:22.202 : :Chapter 11
01:24:43.078 : :Chapter 12
01:32:17.698 : :Chapter 13
01:37:06.612 : :Chapter 14
01:49:13.088 : :Chapter 15
01:55:03.730 : :Chapter 16
02:01:11.055 : :Chapter 17
02:06:22.241 : :Chapter 18
02:15:53.937 : :Chapter 19
x264 log
x264 [info]: frame I:1593 Avg QP:14.28 size: 98793
x264 [info]: frame P:54849 Avg QP:15.82 size: 44795
x264 [info]: frame B:139064 Avg QP:17.46 size: 17479
x264 [info]: consecutive B-frames: 7.3% 8.9% 11.6% 16.6% 14.7% 29.0% 4.5% 1.0% 1.5% 1.0% 0.9% 0.5% 1.0% 1.4%
x264 [info]: ref P L0: 59.4% 9.9% 14.0% 5.8% 3.8% 2.6% 2.0% 1.2% 1.1% 0.3% 0.0%
x264 [info]: ref B L0: 77.8% 10.9% 5.0% 2.4% 1.6% 1.1% 0.9% 0.4%
x264 [info]: ref B L1: 92.0% 8.0%
Скриншоты
Скачать

Скачать торрент!

Как скачивать? · Что такое торрент? · Рейтинг и ограничения

Сайт не распространяет и не хранит электронные версии произведений, а лишь предоставляет доступ к создаваемому пользователями каталогу ссылок на торрент-файлы, которые содержат только списки хеш-сумм

[Профиль] [ЛС]
Показать сообщения:    
Ответить на тему

Текущее время: Сегодня 00:36

Часовой пояс: GMT + 4



Вы не можете начинать темы
Вы не можете отвечать на сообщения
Вы не можете редактировать свои сообщения
Вы не можете удалять свои сообщения
Вы не можете голосовать в опросах
Вы не можете прикреплять файлы к сообщениям
Вы не можете скачивать файлы