Молодая Индия / Youngistaan (Сид Ахмед Афзал / Syed Ahmed Afzal) [2014, Индия, Драма, DVDRip] Sub Rus

Ответить на тему
 
Автор Сообщение

user ®

Стаж: 13 лет

Сообщений: 15070

Пост Пост: #1 от 03-Авг-2014 15:30

[Цитировать]

Молодая Индия / Youngistaan
Страна: Индия
Жанр: Драма
Год выпуска: 2014
Продолжительность: 02:04:50
Перевод: Субтитры
Cубтитры: русские
Оригинальная аудиодорожка: хинди
Режиссер: Сид Ахмед Афзал / Syed Ahmed Afzal
В ролях: Джекки Бхагнани, Неха Шарма, Фарук Шайх, Боман Ирани, Кайозе Ирани, Мита Васишт, Шахрукх Кхан
Описание: Молодая Индия - это история любви, которая разворачивается на фоне политических событий. Абхиманью Коул - обычный парень, который жил беззаботной жизнью в Японии вместе со своей девушкой Анвитой Чаухан. Неожиданно, после смерти своего отца, премьер-министра Индии, он оказывается втянутым в грязные политические игры. У него складываются ложные и противоречивые отношения внутри партии отца. Неохотно возложив на свои плечи должность лидера нации, он начинает борьбу с устаревшими идеалами и принципами своей страны, во многом противореча своим собственным желаниям и ставя под угрозу свою личную жизнь...
Доп. информация: Перевод и редакция: Honey & Haseena (Спасибо!)
Сэмпл: http://multi-up.com/990227
Качество видео: DVDRip
Формат видео: AVI
Видео: XviD MPEG-4, 720x304 (2.37:1), 23.976 fps, 1460 kbps avg
Аудио: Hindi AC3 Dolby Digital, 48 kHz, 2/0 (L,R) ch, 192.00 kbps avg
Формат субтитров: hardsub (неотключаемые)
MediaInfo
General
Complete name : F:\Molodaya.India.2014.DVDRip.XviD.HoneyHaseena.avi
Format : AVI
Format/Info : Audio Video Interleave
File size : 1.45 GiB
Duration : 2h 4mn
Overall bit rate : 1 660 Kbps
Writing application : VirtualDubMod 1.5.10.2 (build 2542/release)
Writing library : VirtualDubMod build 2542/release
Video
ID : 0
Format : MPEG-4 Visual
Format profile : AdvancedSimple@L5
Format settings, BVOP : Yes
Format settings, QPel : No
Format settings, GMC : No warppoints
Format settings, Matrix : Default (H.263)
Muxing mode : Packed bitstream
Codec ID : XVID
Codec ID/Hint : XviD
Duration : 2h 4mn
Bit rate : 1 460 Kbps
Width : 720 pixels
Height : 304 pixels
Display aspect ratio : 2.35
Frame rate : 23.976 fps
Resolution : 24 bits
Colorimetry : 4:2:0
Scan type : Progressive
Bits/(Pixel*Frame) : 0.278
Stream size : 1.27 GiB (88%)
Writing library : XviD 64
Audio
ID : 1
Format : AC-3
Format/Info : Audio Coding 3
Codec ID : 2000
Duration : 2h 4mn
Bit rate mode : Constant
Bit rate : 192 Kbps
Channel(s) : 2 channels
Channel positions : L R
Sampling rate : 48.0 KHz
Stream size : 171 MiB (12%)
Alignment : Split accross interleaves
Interleave, duration : 64 ms (1.53 video frames)
Interleave, preload duration : 500 ms
Скриншот c названием фильма Скриншоты
Скачать

Скачать торрент! Молодая Индия / Youngistaan (Сид Ахмед Афзал / Syed Ahmed Afzal) [2014, Индия, Драма, DVDRip] Sub Rus

Как скачивать? · Что такое торрент? · Рейтинг и ограничения

Сайт не распространяет и не хранит электронные версии произведений, а лишь предоставляет доступ к создаваемому пользователями каталогу ссылок на торрент-файлы, которые содержат только списки хеш-сумм

[Профиль] [ЛС]
Показать сообщения:    
Ответить на тему

Текущее время: Сегодня 15:31

Часовой пояс: GMT + 4



Вы не можете начинать темы
Вы не можете отвечать на сообщения
Вы не можете редактировать свои сообщения
Вы не можете удалять свои сообщения
Вы не можете голосовать в опросах
Вы не можете прикреплять файлы к сообщениям
Вы не можете скачивать файлы