РЭД 2 / Red 2 (Дин Паризо / Dean Parisot) [2013, США, Франция, Канада, боевик, комедия, BDRip 1080p] [US Transfer] Dub + AVO Гаврилов + Original Eng + Sub Rus, Eng

Ответить на тему
 
Автор Сообщение

user ®

Стаж: 7 лет 7 месяцев

Сообщений: 20008

Пост Пост: #1 от 02-Авг-2014 23:45

[Цитировать]

РЭД 2 / Red 2 / US Transfer- Страна: США, Франция, Канада
Жанр: боевик, комедия
Год выпуска: 2013
Продолжительность: 01:55:48
Перевод: Профессиональный (дублированный)
Cубтитры: русские, английские
Оригинальная аудиодорожка: английский-Режиссер: Дин Паризо / Dean Parisot
В ролях: Брюс Уиллис, Джон Малкович, Мэри-Луиз Паркер, Кэтрин Зета-Джонс, Ли Бён Хон, Энтони Хопкинс, Хелен Миррен, Брайан Кокс, Дэвид Тьюлис, Чжон Кон Ли.
Описание: Большую часть своей жизни Фрэнк Мозес прослужил на благо своей страны, работая агентом ЦРУ. Сейчас он на пенсии и вовсю наслаждается тихой спокойной жизнью вместе со своей возлюбленной Сарой. Но как известно бывших агентов не бывает, и Фрэнку вновь придется взяться за оружие. После того, как он встретил своего старого друга и коллегу Марвина Боггса, бывший агент вновь окунается в мир шпионских игр. Во времена Холодной войны гениальный ученый Эдвард Бэйли собрал оружие массового поражения, которое он спрятал в неизвестном месте. Об этом оружии стало известно некой террористической группировке, и теперь миру грозит опасность. Фрэнк понимает, что в одиночку предотвратить теракт будет очень сложно, поэтому он обращается к своим старым друзьям — агентам-пенсионерам...-Тип релиза: BDRip 1080p
Контейнер: MKV | Sample
Видео: 1920x800 (2.40:1), 23.976 fps, x264@L4.1 ~16900 kbps avg
Аудио 1: Russian 48 kHz, DTS, 3/2 (L,C,R,l,r) + LFE ch, 1509.00 kbps avg | BD RUS
Аудио 2: Russian 48 kHz, DTS, 3/2 (L,C,R,l,r) + LFE ch, 1509.00 kbps avg | AVO Гаврилов
Аудио 3: English 48 kHz, DTS, 3/2 (L,C,R,l,r) + LFE ch, 1509.00 kbps avg | Original

Скриншоты Медиаинфо
Общее
Формат : Matroska
Версия формата : Version 4 / Version 2
Размер файла : 17,3 Гбайт
Продолжительность : 1 ч. 55 м.
Общий поток : 21,4 Мбит/сек
Название фильма : Red 2 2013
Дата кодирования : UTC 2014-06-20 15:37:11
Программа кодирования : mkvmerge v6.1.0 ('Old Devil') built on Mar 4 2013 09:10:42
Библиотека кодирования : libebml v1.3.0 + libmatroska v1.4.0
Видео
Идентификатор : 1
Формат : AVC
Формат/Информация : Advanced Video Codec
Профиль формата : High@L4.1
Параметр CABAC формата : Да
Параметр ReFrames формата : 5 кадров
Идентификатор кодека : V_MPEG4/ISO/AVC
Продолжительность : 1 ч. 55 м.
Битрейт : 16,9 Мбит/сек
Ширина : 1920 пикселей
Высота : 800 пикселей
Соотношение сторон : 2,40:1
Режим частоты кадров : Постоянный
Частота кадров : 23,976 кадра/сек
Цветовое пространство : YUV
Субдискретизация насыщенности : 4:2:0
Битовая глубина : 8 бит
Тип развёртки : Прогрессивная
Бит/(Пиксели*Кадры) : 0.459
Размер потока : 13,3 Гбайт (77%)
Заголовок : BDRip 1080p
Библиотека кодирования : x264 core 138 r2358 9e941d1
Настройки программы : cabac=1 / ref=5 / deblock=1:-3:-3 / analyse=0x3:0x133 / me=tesa / subme=11 / psy=1 / psy_rd=1.00:0.00 / mixed_ref=1 / me_range=24 / chroma_me=1 / trellis=2 / 8x8dct=1 / cqm=0 / deadzone=21,11 / fast_pskip=0 / chroma_qp_offset=-2 / threads=12 / lookahead_threads=2 / sliced_threads=0 / nr=0 / decimate=1 / interlaced=0 / bluray_compat=0 / constrained_intra=0 / bframes=8 / b_pyramid=2 / b_adapt=2 / b_bias=0 / direct=3 / weightb=1 / open_gop=0 / weightp=2 / keyint=250 / keyint_min=23 / scenecut=40 / intra_refresh=0 / rc_lookahead=60 / rc=2pass / mbtree=1 / bitrate=16900 / ratetol=1.0 / qcomp=0.60 / qpmin=0 / qpmax=69 / qpstep=4 / cplxblur=20.0 / qblur=0.5 / ip_ratio=1.40 / aq=1:0.80
Язык : English
Default : Да
Forced : Нет
Аудио #1
Идентификатор : 2
Формат : DTS
Формат/Информация : Digital Theater Systems
Режим : 16
Параметр Endianness формата : Big
Идентификатор кодека : A_DTS
Продолжительность : 1 ч. 55 м.
Вид битрейта : Постоянный
Битрейт : 1509 Кбит/сек
Каналы : 6 каналов
Расположение каналов : Front: L C R, Side: L R, LFE
Частота : 48,0 КГц
Битовая глубина : 16 бит
Метод сжатия : С потерями
Размер потока : 1,22 Гбайт (7%)
Заголовок : BD RUS
Язык : Russian
Default : Да
Forced : Нет
Аудио #2
Идентификатор : 3
Формат : DTS
Формат/Информация : Digital Theater Systems
Режим : 16
Параметр Endianness формата : Big
Идентификатор кодека : A_DTS
Продолжительность : 1 ч. 55 м.
Вид битрейта : Постоянный
Битрейт : 1509 Кбит/сек
Каналы : 6 каналов
Расположение каналов : Front: L C R, Side: L R, LFE
Частота : 48,0 КГц
Битовая глубина : 24 бит
Метод сжатия : С потерями
Размер потока : 1,22 Гбайт (7%)
Заголовок : AVO Гаврилов
Язык : Russian
Default : Нет
Forced : Нет
Аудио #3
Идентификатор : 4
Формат : DTS
Формат/Информация : Digital Theater Systems
Режим : 16
Параметр Endianness формата : Big
Идентификатор кодека : A_DTS
Продолжительность : 1 ч. 55 м.
Вид битрейта : Постоянный
Битрейт : 1509 Кбит/сек
Каналы : 6 каналов
Расположение каналов : Front: L C R, Side: L R, LFE
Частота : 48,0 КГц
Битовая глубина : 24 бит
Метод сжатия : С потерями
Размер потока : 1,22 Гбайт (7%)
Заголовок : Original
Язык : English
Default : Нет
Forced : Нет
Текст #1
Идентификатор : 5
Формат : UTF-8
Идентификатор кодека : S_TEXT/UTF8
Идентификатор кодека/Информация : UTF-8 Plain Text
Заголовок : Forced
Язык : Russian
Default : Да
Forced : Нет
Текст #2
Идентификатор : 6
Формат : UTF-8
Идентификатор кодека : S_TEXT/UTF8
Идентификатор кодека/Информация : UTF-8 Plain Text
Заголовок : Full
Язык : Russian
Default : Нет
Forced : Нет
Текст #3
Идентификатор : 7
Формат : UTF-8
Идентификатор кодека : S_TEXT/UTF8
Идентификатор кодека/Информация : UTF-8 Plain Text
Заголовок : Full 1
Язык : English
Default : Нет
Forced : Нет
Текст #4
Идентификатор : 8
Формат : UTF-8
Идентификатор кодека : S_TEXT/UTF8
Идентификатор кодека/Информация : UTF-8 Plain Text
Заголовок : Full 2
Язык : English
Default : Нет
Forced : Нет
Текст #5
Идентификатор : 9
Формат : UTF-8
Идентификатор кодека : S_TEXT/UTF8
Идентификатор кодека/Информация : UTF-8 Plain Text
Заголовок : Full 3
Язык : English
Default : Нет
Forced : Нет
Текст #6
Идентификатор : 10
Формат : UTF-8
Идентификатор кодека : S_TEXT/UTF8
Идентификатор кодека/Информация : UTF-8 Plain Text
Заголовок : Full SDH 1
Язык : English
Default : Нет
Forced : Нет
Текст #7
Идентификатор : 11
Формат : UTF-8
Идентификатор кодека : S_TEXT/UTF8
Идентификатор кодека/Информация : UTF-8 Plain Text
Заголовок : Full SDH 2
Язык : English
Default : Нет
Forced : Нет
Текст #8
Идентификатор : 12
Формат : UTF-8
Идентификатор кодека : S_TEXT/UTF8
Идентификатор кодека/Информация : UTF-8 Plain Text
Заголовок : Full SDH Colored
Язык : English
Default : Нет
Forced : Нет
Меню
00:00:00.000 : :Chapter 1
00:08:31.093 : :Chapter 2
00:15:02.192 : :Chapter 3
00:21:30.497 : :Chapter 4
00:28:33.336 : :Chapter 5
00:39:50.887 : :Chapter 6
00:47:24.425 : :Chapter 7
00:54:32.561 : :Chapter 8
01:00:21.326 : :Chapter 9
01:07:47.021 : :Chapter 10
01:11:48.804 : :Chapter 11
01:18:52.770 : :Chapter 12
01:23:16.283 : :Chapter 13
01:28:01.067 : :Chapter 14
01:35:52.454 : :Chapter 15
01:41:44.305 : :Chapter 16
01:45:24.025 : :Chapter 17
01:46:59.912 : :Chapter 18
Дополнительно
Рип Otaibi
За перевод Гаврилова большое спасибо пользователям форума
rydanes, -Джосс-, doctor811, Hattori Hanzo, kinobbk, Vimann, Tehnar, nimph, Shumway, saenwert, ASUKEVICH, GaryH, dunhill2000, Chistobaev, lexal, therox, Gangster, SavineX, _MyxAmoP_, timur, Pain_70, milocerd0v, Loki, olegsoleg, chef&chef, Guyver, Iron Man, hulahup, Role, KpucTo161, DrCrane, DB73, Диммон, Luka69, chernila
Скачать

Скачать торрент!

Как скачивать? · Что такое торрент? · Рейтинг и ограничения

Сайт не распространяет и не хранит электронные версии произведений, а лишь предоставляет доступ к создаваемому пользователями каталогу ссылок на торрент-файлы, которые содержат только списки хеш-сумм

[Профиль] [ЛС]
Показать сообщения:    
Ответить на тему

Текущее время: Сегодня 03:52

Часовой пояс: GMT + 4



Вы не можете начинать темы
Вы не можете отвечать на сообщения
Вы не можете редактировать свои сообщения
Вы не можете удалять свои сообщения
Вы не можете голосовать в опросах
Вы не можете прикреплять файлы к сообщениям
Вы не можете скачивать файлы