Не исчезай / Don\'t Fade Away (Люк Кэсдан / Luke Kasdan) [2010, США, драма, HDTVRip 1080p] MVO

Ответить на тему
 
Автор Сообщение

user ®

Стаж: 7 лет 7 месяцев

Сообщений: 20008

Пост Пост: #1 от 02-Авг-2014 13:00

[Цитировать]

Не исчезай / Don't Fade Away Страна: США
Жанр: драма
Год выпуска: 2010
Продолжительность: 01:25:28
Перевод: Профессиональный (многоголосый закадровый)
Cубтитры: нет
Режиссер: Люк Кэсдан / Luke Kasdan
В ролях: Миша Бартон, Райан Квантен, Бо Бриджес, Джа Рул, Майкл Альбанезе, Рэйчел Боденштайн, Эллисон Флэнеган, Ричмонд Флауэрс III, Джоди
Фридман, Джессика Каплан
Описание: Когда ты молод и умён, кажется, что твои возможности безграничные. Оставив отчий дом, Джексон Уайт сбежал в Лос-Анджелес и достаточно быстро стал успешным музыкальным менеджером, заработав и деньги и статус. Но, только оказавшись на грани разорения, Джексон вспомнил о родном доме. Он будет вынужден вернуться в свою Северную Каролину, чтобы ухаживать за умирающим отцом, ему придётся встретиться с обиженными им друзьями и девушкой, которую он когда-то оставил.
Доп. информация: Запись со спутника телеканал Кинопоказ HD-1 (Триколор ТВ, оцифровка через HDMI выход).

Сэмпл: http://sendfile.su/1007127
Тип релиза: HDTVRip 1080p
Контейнер: TS
Видео: AVC/H.264, PAL, 1920x1080 (16:9), 8061 Кбит/сек, 25.000 fps
Аудио: русский, MP-2, 48000 Hz, 192 Кбит/сек, 2 ch
MediaInfo
Общее
Идентификатор : 1 (0x1)
Полное имя : C:\Documents and Settings\User\Мои документы\Не исчезай.ts
Формат : MPEG-TS
Размер файла : 5,10 Гбайт
Продолжительность : 1 ч. 25 м.
Режим общего битрейта : Переменный
Общий поток : 8542 Кбит/сек
Видео
Идентификатор : 224 (0xE0)
Идентификатор меню : 1 (0x1)
Формат : AVC
Формат/Информация : Advanced Video Codec
Профиль формата : High@L4.1
Параметр CABAC формата : Да
Параметр ReFrames формата : 3 кадра
Идентификатор кодека : 27
Продолжительность : 1 ч. 25 м.
Вид битрейта : Постоянный
Битрейт : 8061 Кбит/сек
Ширина : 1920 пикселей
Высота : 1080 пикселей
Соотношение сторон : 16:9
Частота кадров : 25,000 кадров/сек
Стандарт вещания : PAL
Цветовое пространство : YUV
Субдискретизация насыщенности : 4:2:0
Битовая глубина : 8 бит
Тип развёртки : Прогрессивная
Бит/(Пиксели*Кадры) : 0.155
Размер потока : 4,73 Гбайт (93%)
Основные цвета : BT.709
Характеристики трансфера : BT.709
Коэффициенты матрицы : BT.709
Аудио
Идентификатор : 192 (0xC0)
Идентификатор меню : 1 (0x1)
Формат : MPEG Audio
Версия формата : Version 1
Профиль формата : Layer 2
Идентификатор кодека : 3
Продолжительность : 1 ч. 25 м.
Вид битрейта : Постоянный
Битрейт : 192 Кбит/сек
Каналы : 2 канала
Частота : 48,0 КГц
Метод сжатия : С потерями
Задержка видео : 24 мс.
Размер потока : 117 Мбайт (2%)
Язык : Russian
Скриншот c названием фильма Скриншоты
Скачать

Скачать торрент!

Как скачивать? · Что такое торрент? · Рейтинг и ограничения

Сайт не распространяет и не хранит электронные версии произведений, а лишь предоставляет доступ к создаваемому пользователями каталогу ссылок на торрент-файлы, которые содержат только списки хеш-сумм

[Профиль] [ЛС]
Показать сообщения:    
Ответить на тему

Текущее время: Сегодня 14:25

Часовой пояс: GMT + 4



Вы не можете начинать темы
Вы не можете отвечать на сообщения
Вы не можете редактировать свои сообщения
Вы не можете удалять свои сообщения
Вы не можете голосовать в опросах
Вы не можете прикреплять файлы к сообщениям
Вы не можете скачивать файлы