009-1: Конец начала / 009 No 1: The End of the Beginning (Койти Сакамото / Koichi Sakamoto) [2013, Япония, фантастика, боевик, WEB-DLRip] DVO (DeadSno & den904)

Ответить на тему
 
Автор Сообщение

user ®

Стаж: 13 лет

Сообщений: 15071

Пост Пост: #1 от 02-Авг-2014 09:50

[Цитировать]

009-1: Конец начала / 009 No 1: The End of the Beginning
Страна: Япония
Жанр: фантастика, боевик
Год выпуска: 2013
Продолжительность: 01:24:08-Перевод: Любительский (двухголосный закадровый) [DeadSno & den904]
Cубтитры: нет-Режиссер: Койти Сакамото / Koichi Sakamoto-В ролях: Рёхеи Абе, Санаэ Хитоми, Хиротаро Хонда, Маюко Иваса, Шизука Мидорикава, Нао Нагасава-Описание: История разворачивается в будущем. Мир разделён на 2 блока: Западный и Восточный, между которыми ведётся холодная война. Милен — шпионка-киборг 009-1 из Западного блока. Она тайно пробирается в страну J (пограничная область между двумя блоками), чтобы разоблачить торговцев людьми. В ходе выполнения своей миссии она знакомится с парнем по имени Крис, который рассказывает ей важную информацию. Милен заканчивает миссию, но Криса забыть не может.-Сэмпл: http://sendfile.su/1007582-Качество видео: WEB-DLRip
Формат видео: AVI
Видео: XviD, 1,85:1, 720х384, 23,976 кадра/сек, 2125 Кбит/сек
Аудио: AC 3, 48,0 КГц, 192 Кбит/сек, 2 канала: Front: L R-
MediaInfo
Формат : AVI
Формат/Информация : Audio Video Interleave
Размер файла : 1,37 Гбайт
Продолжительность : 1 ч. 24 м.
Общий поток : 2326 Кбит/сек
Программа кодирования : VirtualDubMod 1.5.10.3 | www.virtualdub-fr.org || (build 2550/release)
Библиотека кодирования : VirtualDubMod build 2550/release
Видео
Идентификатор : 0
Формат : MPEG-4 Visual
Профиль формата : Advanced Simple@L5
Параметр BVOP формата : 1
Параметр QPel формата : Нет
Параметр GMC формата : Без точки перехода
Параметр матрицы формата : Выборочная
Идентификатор кодека : XVID
Идентификатор кодека/Подсказка : XviD
Продолжительность : 1 ч. 24 м.
Битрейт : 2125 Кбит/сек
Ширина : 720 пикселей
Высота : 384 пикселя
Соотношение сторон : 1,85:1
Частота кадров : 23,976 кадра/сек
Цветовое пространство : YUV
Субдискретизация насыщенности : 4:2:0
Битовая глубина : 8 бит
Тип развёртки : Прогрессивная
Метод сжатия : С потерями
Бит/(Пиксели*Кадры) : 0.321
Размер потока : 1,25 Гбайт (91%)
Библиотека кодирования : XviD 73
Аудио
Идентификатор : 1
Формат : AC-3
Формат/Информация : Audio Coding 3
Расширение режима : CM (complete main)
Параметр Endianness формата : Big
Идентификатор кодека : 2000
Продолжительность : 1 ч. 24 м.
Вид битрейта : Постоянный
Битрейт : 192 Кбит/сек
Каналы : 2 канала
Расположение каналов : Front: L R
Частота : 48,0 КГц
Битовая глубина : 16 бит
Метод сжатия : С потерями
Размер потока : 116 Мбайт (8%)
Выравнивание : Разделение по промежуткам
Продолжительность промежутка : 42 мс. (1,00 видеокадр)
Время предзагрузки промежутка : 500 мс.
Скриншот c названием фильма Скриншоты
Скачать

Скачать торрент! 009-1: Конец начала / 009 No 1: The End of the Beginning (Койти Сакамото / Koichi Sakamoto) [2013, Япония, фантастика, боевик, WEB-DLRip] DVO (DeadSno & den904)

Как скачивать? · Что такое торрент? · Рейтинг и ограничения

Сайт не распространяет и не хранит электронные версии произведений, а лишь предоставляет доступ к создаваемому пользователями каталогу ссылок на торрент-файлы, которые содержат только списки хеш-сумм

[Профиль] [ЛС]
Показать сообщения:    
Ответить на тему

Текущее время: Сегодня 16:55

Часовой пояс: GMT + 4



Вы не можете начинать темы
Вы не можете отвечать на сообщения
Вы не можете редактировать свои сообщения
Вы не можете удалять свои сообщения
Вы не можете голосовать в опросах
Вы не можете прикреплять файлы к сообщениям
Вы не можете скачивать файлы