Ужас в торговом центре / Darr at the Mall (Паван Крипалани / Pawan Kripalani) [2014, Индия, Ужасы, триллер, мистика, WEB-DLRip] DVO

Ответить на тему
 
Автор Сообщение

user ®

Стаж: 12 лет

Сообщений: 15092

Пост Пост: #1 от 01-Авг-2014 23:00

[Цитировать]

Ужас в торговом центре / Darr at the Mall
Страна: Индия
Жанр: Ужасы, триллер, мистика
Год выпуска: 2014
Продолжительность: 02:02:23
Перевод: Любительский (двухголосый закадровый) DeadSno & den904
Cубтитры: нет
Режиссер: Паван Крипалани / Pawan Kripalani
В ролях: Джимми Шергилл, Нушрат Бхаруча, Ариф Закария, Азиф Басра, Ниведита Бхаттачария, Шрадха Коул, Нирадж Суд
Описание: Молодой парень по имени Вишну, откликнувшись на заманчивое предложение со стороны работодателей, устраивается ночным охранником в торговый Центр "Дружба". Это место с виду милое и привлекательное. Но за его дверями погибло уже десяток человек... Бизнесмены Кхан и Мачандра решают устроить грандиозную вечеринку в честь громкого открытия центра, пригласив кучу гостей. Сюда же наведывается и молодежь. Что же ужасное скрывается за дверями центра и какую зловещую тайну предстоит разгадать героям?..
Доп. информация: Релиз группы: КОЛОБОК
Перевод: DeadSno & den904 по субтитрам Honey & Haseena (Спасибо!)
Сэмпл: http://multi-up.com/989931
Качество видео: WEB-DLRip
Формат видео: AVI
Видео: XviD build 50, 720x304 (2.37:1), 23.976 fps, 1410 kbps avg
Аудио: AC3 Dolby Digital, 48 kHz, 2/0 (L,R) ch, 192.00 kbps avg
MediaInfo
General
Complete name : D:\Darr.at.the.Mall.WEBDLRip.1400mb.avi
Format : AVI
Format/Info : Audio Video Interleave
File size : 1.38 GiB
Duration : 2h 2mn
Overall bit rate : 1 611 Kbps
Writing application : VirtualDubModRus 1.5.10.2 (build 2542/release)
Writing library : VirtualDubMod build 2542/release
Video
ID : 0
Format : MPEG-4 Visual
Format profile : AdvancedSimple@L5
Format settings, BVOP : Yes
Format settings, QPel : No
Format settings, GMC : No warppoints
Format settings, Matrix : Default (MPEG)
Codec ID : XVID
Codec ID/Hint : XviD
Duration : 2h 2mn
Bit rate : 1 410 Kbps
Width : 720 pixels
Height : 304 pixels
Display aspect ratio : 2.35
Frame rate : 23.976 fps
Resolution : 24 bits
Colorimetry : 4:2:0
Scan type : Progressive
Bits/(Pixel*Frame) : 0.269
Stream size : 1.21 GiB (87%)
Writing library : XviD 1.2.1 (UTC 2008-12-04)
Audio
ID : 1
Format : AC-3
Format/Info : Audio Coding 3
Codec ID : 2000
Duration : 2h 2mn
Bit rate mode : Constant
Bit rate : 192 Kbps
Channel(s) : 2 channels
Channel positions : L R
Sampling rate : 48.0 KHz
Stream size : 168 MiB (12%)
Alignment : Split accross interleaves
Interleave, duration : 42 ms (1.00 video frame)
Interleave, preload duration : 500 ms
Скриншот c названием фильма Скриншоты
Скачать

Скачать торрент! Ужас в торговом центре / Darr at the Mall (Паван Крипалани / Pawan Kripalani) [2014, Индия, Ужасы, триллер, мистика, WEB-DLRip] DVO

Как скачивать? · Что такое торрент? · Рейтинг и ограничения

Сайт не распространяет и не хранит электронные версии произведений, а лишь предоставляет доступ к создаваемому пользователями каталогу ссылок на торрент-файлы, которые содержат только списки хеш-сумм

[Профиль] [ЛС]
Показать сообщения:    
Ответить на тему

Текущее время: Сегодня 07:07

Часовой пояс: GMT + 4



Вы не можете начинать темы
Вы не можете отвечать на сообщения
Вы не можете редактировать свои сообщения
Вы не можете удалять свои сообщения
Вы не можете голосовать в опросах
Вы не можете прикреплять файлы к сообщениям
Вы не можете скачивать файлы