Клад / Khazana (Хармеш Мальхотра / Harmesh Malhotra) [1987, Индия, Боевик, триллер, драма, криминал, SATRip] VO + Sub Rus + Sub Eng

Ответить на тему
 
Автор Сообщение

user ®

Стаж: 12 лет

Сообщений: 15092

Пост Пост: #1 от 01-Авг-2014 19:50

[Цитировать]

Клад / Khazana-- Страна: Индия
Жанр: Боевик, триллер, драма, криминал
Год выпуска: 1987
Продолжительность: 02:05:06
Перевод: Одноголосый закадровый
Перевод субтитров: larisa_k
Озвучка: Nastia
Cубтитры: Русские (на песни), английские (хардсаб)
Оригинальная аудиодорожка: нет--Режиссер: Хармеш Мальхотра / Harmesh Malhotra--В ролях: Рандхир Капур, Рекха, Бинду, Ранджит, Мадан Пури, Дев Кумар, Бирбал, Ражан Раксар, Кирти, Сундер, Рам Мохан, Мулчанд, Чаман Пури, Мина Раи, Джагдиш Радж, Риши Капур, Джитендра--Описание: Простой парень Радж работает механиком в Бомбее, однажды ему приходит телеграмма с известием что его отец обвиняется в краже драгоценностей с места своей работы. Приехав к отцу он застает его в беспамятстве, его отец ничего не может вспомнить о том что с ним было, кроме девушки с кольцом в виде змеи. Вскоре отец Раджа умирает при таинственных обстоятельствах. Радж уверен что его отца убили. Полиция не верит ему и Радж начинает самостоятельные поиски убийцы. Он выясняет что его отец был замешан в деле связанном с поисками древнего клада...--Благодарность:
larisa_k, за перевод субтитров и за предоставленные материалы
Nastia, за озвучку фильма-Рип и сведение звука: pca1962--Релиз-группа:
Сэмпл: http://multi-up.com/989808
Качество видео: SATRip
Формат видео: AVI
Видео: XviD, 640x480, 25.00 fps, 1469 kbps
Аудио: AC3, 48 kHz, 2.0 (stereo), 192 kbps (русский)
Формат субтитров: русские: softsub (SRT) + английские: hardsub (неотключаемые)-
-
MediaInfo
=== Общие ===
Полное имя : Klad.1987.SATRip.XviD.pca1962.avi
Формат : AVI
Описание формата : Audio Video Interleave
Размер файла : 1.46 Гб
Длительность : 2ч 5мин
Общий битрейт : 1 671 кбит/сек
Название фильма : Khazana.1987
Director : pca1962
Жанр / стиль : Action/Drama/Thriller
Програмное обеспечение : VirtualDubMod 1.5.10.3 | www.virtualdub-fr.org || (build 2550/release)
Original source form/Name : Movie
=== Видео ===
ID (Идентификатор) : 0
Формат : MPEG-4 Visual
Профиль формата : Advanced Simple@L5
Параметр 'BVOP' : 1
Параметр 'QPel' : Нет
Параметр 'GMC' : No warppoints
Параметр 'Matrix' : Default (H.263)
Идентификатор кодека : XVID
Подпись кодека : XviD
Длительность : 2ч 5мин
Битрейт : 1469 кбит/сек
Ширина кадра : 640 пикселей
Высота кадра : 480 пикселей
Соотношение сторон : 4:3
Частота кадров : 25.000 кадров/сек
Цветовое пространство : YUV
Субдискретизация насыщенности : 4:2:0
Глубина (разрядность) : 8 bits
Тип развертки : Прогрессивная
Режим сжатия : С потерями
Бит/(пиксель*кадр) : 0.191
Размер потока : 1.28 Гб (88%)
Кодирующая библиотека : XviD 1.2.1 (UTC 2008-12-04)
=== Аудио ===
ID (Идентификатор) : 1
Формат : AC-3
Описание формата : Audio Coding 3
Mode extension : CM (complete main)
Идентификатор кодека : 2000
Длительность : 2ч 5мин
Тип битрейта : Постоянный
Битрейт : 192 кбит/сек
Канал(ы) : 2 каналов
Расположение каналов : Front: L R
Частота дискретизации : 48.0 кГц
Глубина (разрядность) : 16 bits
Режим сжатия : С потерями
Размер потока : 172 Мб (11%)
Расположение потока : Split accross interleaves
Период чередования : 40 мс (1.00 video frame)
Предварительная загрузка : 500 мс

-
-Скриншот c названием фильма Скриншоты
Скачать

Скачать торрент! Клад / Khazana (Хармеш Мальхотра / Harmesh Malhotra) [1987, Индия, Боевик, триллер, драма, криминал, SATRip] VO + Sub Rus + Sub Eng

Как скачивать? · Что такое торрент? · Рейтинг и ограничения

Сайт не распространяет и не хранит электронные версии произведений, а лишь предоставляет доступ к создаваемому пользователями каталогу ссылок на торрент-файлы, которые содержат только списки хеш-сумм

[Профиль] [ЛС]
Показать сообщения:    
Ответить на тему

Текущее время: Сегодня 11:37

Часовой пояс: GMT + 4



Вы не можете начинать темы
Вы не можете отвечать на сообщения
Вы не можете редактировать свои сообщения
Вы не можете удалять свои сообщения
Вы не можете голосовать в опросах
Вы не можете прикреплять файлы к сообщениям
Вы не можете скачивать файлы