Бог создал мир. Ноев ковчег (Вера Мякишева, Дмитрий Глущенко, Анастасия Савченко, Никита Терещенко) [2004, рисованный мультфильм, WEBRip]

Ответить на тему
 
Автор Сообщение

user ®

Стаж: 7 лет 7 месяцев

Сообщений: 20008

Пост Пост: #1 от 01-Авг-2014 13:30

[Цитировать]

Бог создал мир. Ноев ковчег
Страна: Россия
Производство: Студия "Шаг"
Жанр: рисованный мультфильм
Продолжительность: 00:09:58
Год выпуска: 2004
Русские субтитры: нет
Режиссёры: Вера Мякишева, Дмитрий Глущенко, Анастасия Савченко, Никита Терещенко
Описание: Мультипликационный фильм состоит из двух сюжетов. «Бог создал Мир» — согласно библейскому повествованию о сотворении мира. «Ноев ковчег» — разгневавшись на род людской, Бог решил устроить на Земле Всемирный Потоп и одновременно с тем повелел праведнику Ною, построить Ковчег, в котором бы поместились семья его и «каждой твари по паре».
Кинопоиск
Качество: WEBRip
Формат: AVI
Видео: 640x480 (1.33:1), 25 fps, XviD MPEG-4 ~1305 kbps avg, 0.170 bit/pixel
Аудио: 48.0 kHz, MPEG Layer 3, 2 ch, ~128.00 kbps avg
Субтитры: Отсутствуют

Подробные технические данные
GeneralComplete name : E:\1\Бог создал мир. Ноев ковчег 2004.aviFormat : AVIFormat/Info : Audio Video InterleaveFile size : 103 MiBDuration : 9mn 58sOverall bit rate : 1 443 KbpsWriting application : VirtualDubMod 1.5.10.3 | www.virtualdub-fr.org || (build 2550/release)Writing library : VirtualDubMod build 2550/release
VideoID : 0Format : MPEG-4 VisualFormat profile : Advanced Simple@L5Format settings, BVOP : 1Format settings, QPel : NoFormat settings, GMC : No warppointsFormat settings, Matrix : Default (H.263)Codec ID : XVIDCodec ID/Hint : XviDDuration : 9mn 58sBit rate : 1 305 KbpsWidth : 640 pixelsHeight : 480 pixelsDisplay aspect ratio : 4:3Frame rate : 25.000 fpsColor space : YUVChroma subsampling : 4:2:0Bit depth : 8 bitsScan type : ProgressiveCompression mode : LossyBits/(Pixel*Frame) : 0.170Stream size : 93.0 MiB (90%)Writing library : XviD 1.2.1 (UTC 2008-12-04)
AudioID : 1Format : MPEG AudioFormat version : Version 1Format profile : Layer 3Codec ID : 55Codec ID/Hint : MP3Duration : 9mn 58sBit rate mode : ConstantBit rate : 128 KbpsChannel count : 2 channelsSampling rate : 48.0 KHzCompression mode : LossyStream size : 9.13 MiB (9%)Alignment : Aligned on interleavesInterleave, duration : 40 ms (1.00 video frame)Interleave, preload duration : 504 msWriting library : LAME3.99rEncoding settings : -m s -V 4 -q 2 -lowpass 17 -b 128
Скриншоты
Скачать

Скачать торрент!

Как скачивать? · Что такое торрент? · Рейтинг и ограничения

Сайт не распространяет и не хранит электронные версии произведений, а лишь предоставляет доступ к создаваемому пользователями каталогу ссылок на торрент-файлы, которые содержат только списки хеш-сумм

[Профиль] [ЛС]
Показать сообщения:    
Ответить на тему

Текущее время: Сегодня 14:30

Часовой пояс: GMT + 4



Вы не можете начинать темы
Вы не можете отвечать на сообщения
Вы не можете редактировать свои сообщения
Вы не можете удалять свои сообщения
Вы не можете голосовать в опросах
Вы не можете прикреплять файлы к сообщениям
Вы не можете скачивать файлы