Реальная сказка (Андрей Мармонтов) [2011, Россия, Фэнтези, драма, комедия, семейный, сказка, BDRemux 1080i]

Ответить на тему
 
Автор Сообщение

user ®

Стаж: 7 лет 7 месяцев

Сообщений: 20008

Пост Пост: #1 от 01-Авг-2014 00:20

[Цитировать]

Реальная сказка
Страна: Россия
Студия: Централ Партнершип
Жанр: Фэнтези, драма, комедия, семейный, сказка
Год выпуска: 2011
Продолжительность: 01:41:58
Перевод: Не требуется
Cубтитры: Нет
Режиссер: Андрей Мармонтов
В ролях: Сергей Безруков, Леонид Ярмольник, Максим Шибаев, Анастасия Добрынина, Ирина Безрукова, Георгий Штиль, Людмила Полякова, Анна Герман (мл.), Сергей Погосян, Антон Пампушный
Описание: Жили-были сестрица Олесенька и братец Саша. Нет, так не пойдет: кажется, прошла пора старых-добрых сказок. Даже сказочные персонажи, понимая это, переселились в наш мир: Василиса Премудрая стала учительницей, Леший бомжом, Иван-дурак ВДВшником, Кащей олигархом. Злые дела творить он, конечно, не бросил. И главным его злодеянием стало то, что он лишил нас веры в чудо. Люди стали эгоистичными, расчетливыми и прагматичными, что Кащею как бальзам на душу. Только одно не дает ему спокойно спать: благодаря сказкам, каждый ребенок знает, где искать его смерть. И какой же он после этого бессмертный? Кащей идет на крайние меры и безжалостно уничтожает все страницы сказок, где описана его страшная тайна. Маленькая девочка Олеся находит нетронутую старинную книгу сказок и, прочитав ее, вскоре исчезает. Старший брат девочки, школьник Саша, бросается на поиски, рассчитывая на поддержку новых знакомых Ивана-дурака и его жены Василисы, но они, вопреки ожиданиям, не спешат помогать ему в его борьбе с Кащеем. Саша же готов пойти на все, чтобы вернуть сестренку и подарить миру веру в чудо.

Доп. информация: Сохранены оригинальные чаптеры, как на Blu-Ray.
Тип релиза: Blu-Ray Remux 1080i [Исходник: Blu-Ray (1080i) от BLUEBIRD]
Контейнер: MKV
Видео: MPEG-2, PAL, 1920x1080 (16:9), 23000 Кбит/с, VBR, 25 кадр/с
Аудио: Русский, Dolby AC3, 48000 Гц, 640 Кбит/с, 6 каналов (5.1)

Автор ремукса - ivandubskoj
MediaInfo
General
Unique ID : 191554423389176112795481291996436604289 (0x901C0A3D578CB562A0D0D98E8263A581)
Complete name : Real'naya.skazka.2011.BDRemux.1080i.mkv
Format : Matroska
Format version : Version 4 / Version 2
File size : 16.8 GiB
Duration : 1h 41mn
Overall bit rate mode : Variable
Overall bit rate : 23.6 Mbps
Movie name : Реальная сказка (2011) Blu-Ray Remux (1080i)
Encoded date : UTC 2014-07-26 10:47:55
Writing application : mkvmerge v6.1.0 ('Old Devil') built on Mar 4 2013 09:10:42
Writing library : libebml v1.3.0 + libmatroska v1.4.0
Video
ID : 1
Format : MPEG Video
Format version : Version 2
Format profile : Main@High
Format settings, BVOP : No
Format settings, Matrix : Default
Codec ID : V_MPEG2
Codec ID/Info : MPEG 1 or 2 Video
Duration : 1h 41mn
Bit rate mode : Variable
Bit rate : 22.5 Mbps
Maximum bit rate : 25.0 Mbps
Width : 1 920 pixels
Height : 1 080 pixels
Display aspect ratio : 16:9
Frame rate mode : Constant
Frame rate : 25.000 fps
Color space : YUV
Chroma subsampling : 4:2:0
Bit depth : 8 bits
Scan type : Interlaced
Scan order : Top Field First
Compression mode : Lossy
Bits/(Pixel*Frame) : 0.435
Time code of first frame : 00:00:00:00
Time code source : Group of pictures header
Stream size : 16.0 GiB (95%)
Title : Реальная сказка (2011)
Language : Russian
Default : Yes
Forced : No
Audio
ID : 2
Format : AC-3
Format/Info : Audio Coding 3
Mode extension : CM (complete main)
Format settings, Endianness : Big
Codec ID : A_AC3
Duration : 1h 41mn
Bit rate mode : Constant
Bit rate : 640 Kbps
Channel(s) : 6 channels
Channel positions : Front: L C R, Side: L R, LFE
Sampling rate : 48.0 KHz
Bit depth : 16 bits
Compression mode : Lossy
Stream size : 467 MiB (3%)
Title : Original
Language : Russian
Default : Yes
Forced : No
Menu
00:00:00.000 : ru:Chapter 0
00:01:53.680 : ru:Chapter 1
00:10:36.400 : ru:Chapter 2
00:22:32.320 : ru:Chapter 3
00:31:32.560 : ru:Chapter 4
00:44:06.320 : ru:Chapter 5
00:55:09.520 : ru:Chapter 6
01:05:34.960 : ru:Chapter 7
01:15:24.400 : ru:Chapter 8
Скриншоты
Скачать

Скачать торрент!

Как скачивать? · Что такое торрент? · Рейтинг и ограничения

Сайт не распространяет и не хранит электронные версии произведений, а лишь предоставляет доступ к создаваемому пользователями каталогу ссылок на торрент-файлы, которые содержат только списки хеш-сумм

[Профиль] [ЛС]
Показать сообщения:    
Ответить на тему

Текущее время: Сегодня 04:02

Часовой пояс: GMT + 4



Вы не можете начинать темы
Вы не можете отвечать на сообщения
Вы не можете редактировать свои сообщения
Вы не можете удалять свои сообщения
Вы не можете голосовать в опросах
Вы не можете прикреплять файлы к сообщениям
Вы не можете скачивать файлы