Семь боевых машин смерти / Семь ступеней кунг-фу / Seven Steps of Kung Fu / Kung Fu of Seven Steps / Qi bu mi zong (Тин Чун / Ting Chung, Ван Чунгуан / Wang Chung-Kuang) [1979, Тайвань, Гонконг, боевые искусства, DVDRip] AVO (Витя Говорун)

Ответить на тему
 
Автор Сообщение

user ®

Стаж: 13 лет

Сообщений: 15071

Пост Пост: #1 от 31-Июл-2014 21:10

[Цитировать]

Семь боевых машин смерти / Семь ступеней кунг-фу / Seven Steps of Kung Fu / Kung Fu of Seven Steps / Qi bu mi zong
Страна: Тайвань, Гонконг
Жанр: боевые искусства
Год выпуска: 1979
Продолжительность: 01:26:08
Перевод: Авторский (одноголосый закадровый) Витя Говорун
Cубтитры: нет
Режиссер: Тин Чун / Ting Chung, Ван Чунгуан / Wang Chung-Kuang
В ролях: Рикки Чэн, Цзя Кай, Чён Чинлань, Чэнь Шань, Линь Ива, Лун Фэй
Описание: Молодой паренёк занимается у опытного старого мастера кунг-фу, совершенствуя и оттачивая своё искусство. Однако в один прекрасный день он замечает, что его учитель явно проявляет повышенное внимание к одному из местных богатых домов, в котором, как выясняется, должны собраться пять мастеров боевых искусств, по совместительству и повстанцев, покушающихся на императора. Собирает их злобный герой Чэнь Шаня, и опознают они друг друга по талисманам, которые носят с собой. Естественно, парень не может остаться в стороне при виде такого кошмара и вместе со своим учителем начинает ответные "антиантиправительственные" действия. (Акира)
Доп. информация: За синхронизацию озвучки благодарность выражается Виктору Береговых (Jet).
Сэмпл: http://multi-up.com/989685
Релиз группы:
Качество видео: DVDRip
Формат видео: AVI
Видео: 688x336 (2.05:1), 25 fps, XviD build 50 ~2232 kbps avg, 0.39 bit/pixel
Аудио: 48 kHz, AC3 Dolby Digital, 2/0 (L,R) ch, ~192 kbps
MediaInfo
Format : AVI
Format/Info : Audio Video Interleave
File size : 1,46 Гбайт
Duration : 1 ч. 26 м.
Overall bit rate : 2434 Кбит/сек
Writing application : VirtualDubMod 1.5.10.3 | www.virtualdub-fr.org || (build 2550/release)
Writing library : VirtualDubMod build 2550/release
Видео
ID : 0
Format : MPEG-4 Visual
Format profile : Advanced Simple@L5
Format settings, BVOP : 1
Format settings, QPel : Нет
Format settings, GMC : Без точки перехода
Format settings, Matrix : Default (MPEG)
Codec ID : XVID
Codec ID/Hint : XviD
Duration : 1 ч. 26 м.
Bit rate : 2233 Кбит/сек
Width : 688 пикселей
Height : 336 пикселей
Display aspect ratio : 2,048
Frame rate : 25,000 кадров/сек
Color space : YUV
Chroma subsampling : 4:2:0
Bit depth : 8 бит
Scan type : Прогрессивная
Compression mode : С потерями
Bits/(Pixel*Frame) : 0.386
Stream size : 1,34 Гбайт (92%)
Writing library : XviD 1.2.1 (UTC 2008-12-04)
Аудио
ID : 1
Format : AC-3
Format/Info : Audio Coding 3
Mode extension : CM (complete main)
Format settings, Endianness : Big
Codec ID : 2000
Duration : 1 ч. 26 м.
Bit rate mode : Постоянный
Bit rate : 192 Кбит/сек
Channel(s) : 2 канала
Channel positions : Front: L R
Sampling rate : 48,0 КГц
Bit depth : 16 бит
Compression mode : С потерями
Stream size : 118 Мбайт (8%)
Alignment : Разделение по промежуткам
Interleave, duration : 40 мс. (1,00 видеокадр)
Interleave, preload duration : 500 мс.
Скриншот c названием фильма Скриншоты
Скачать

Скачать торрент! Семь боевых машин смерти / Семь ступеней кунг-фу / Seven Steps of Kung Fu / Kung Fu of Seven Steps / Qi bu mi zong (Тин Чун / Ting Chung, Ван Чунгуан / Wang Chung-Kuang) [1979, Тайвань, Гонконг, боевые искусства, DVDRip] AVO (Витя Говорун)

Как скачивать? · Что такое торрент? · Рейтинг и ограничения

Сайт не распространяет и не хранит электронные версии произведений, а лишь предоставляет доступ к создаваемому пользователями каталогу ссылок на торрент-файлы, которые содержат только списки хеш-сумм

[Профиль] [ЛС]
Показать сообщения:    
Ответить на тему

Текущее время: Сегодня 16:46

Часовой пояс: GMT + 4



Вы не можете начинать темы
Вы не можете отвечать на сообщения
Вы не можете редактировать свои сообщения
Вы не можете удалять свои сообщения
Вы не можете голосовать в опросах
Вы не можете прикреплять файлы к сообщениям
Вы не можете скачивать файлы