За двумя зайцами (Виктор Иванов) [1961, сатирическая комедия, экранизация, SATRip]

Ответить на тему
 
Автор Сообщение

user ®

Стаж: 7 лет 7 месяцев

Сообщений: 20008

Пост Пост: #1 от 31-Июл-2014 21:10

[Цитировать]

За двумя зайцами
Жанр: Сатирическая комедия, экранизация
Год выпуска: 1961
Продолжительность: 01:11:41
Режиссёр: Виктор Иванов
В ролях: Олег Борисов, Маргарита Криницына, Николай Яковченко, Анна Кушниренко, Наталья Наум, Нонна Копержинская, Анатолий Юрченко, Ольга Викландт, Таисия Литвиненко, Константин Ершов, Людмила Алфимова, Нина Антонова, Валентин Грудинин, Алексей Быков, Софья Карамаш, Николай Талюра, Владимир Корецкий, Владимир Ширяев, Фауста Иванова, Евдокия Доля, Павел Загребельный мл., Мария Капнист, Иван Матвеев
Описание: По одноименной пьесе Михаила Старицкого (в свою очередь представляющей собой переработку комедии Ивана Нечуя-Левицкого «На Кожемяках»). Парикмахер Свирид Петрович Голохвастый, шикарен и неотразим. Правда, несколько вертляв, зато сколько кипучей энергии! И жизненные горизонты перед ним открываются богатые: есть вариант очень перспективной женитьбы на состоятельной, но не слишком привлекательной Проне. А для компенсации моральных издержек брака Свирид уже высмотрел хорошенькую Галю... В фильме столько смешных ситуаций, фраз, ставших крылатыми, столько удачных находок, а актеры играют с таким вдохновением, что фильм можно смело называть классикой отечественной комедии.
Доп. информация: Работа со звуком (украинская дорожка) спасибо alex7691
Сэмпл: http://multi-up.com/987474
Качество видео: SATRip
Формат видео: AVI
Видео: XviD build 73, 704x528 (4:3), 25.000 fps, 2298 kbps avg
Аудио: Русский MPEG Layer 3, 48 kHz, 2/0 (L,R) ch, 192.00 kbps avg
Аудио 2: Украинский AC3 Dolby Digital, 48 kHz, 2/0 (L,R) ch, 192.00 kbps avg
[url=http://***/forum/viewtopic.php?t=4547779]Исходник[/url]
MediaInfo
Complete name : D:\Za.dvumya.saycami.1961.SATRip.Rus.Ukr\Za.dvumya.saycami.1961.SATRip.Rus.Ukr.avi
Format : AVI
Format/Info : Audio Video Interleave
File size : 1.35 GiB
Duration : 1h 11mn
Overall bit rate : 2 696 Kbps
Writing application : VirtualDubModRus 1.5.10.2 (build 2542/release)
Writing library : VirtualDubMod build 2542/release
Video
ID : 0
Format : MPEG-4 Visual
Format profile : Advanced Simple@L5
Format settings, BVOP : 2
Format settings, QPel : No
Format settings, GMC : No warppoints
Format settings, Matrix : Default (MPEG)
Codec ID : XVID
Codec ID/Hint : XviD
Duration : 1h 11mn
Bit rate : 2 300 Kbps
Width : 704 pixels
Height : 528 pixels
Display aspect ratio : 4:3
Frame rate : 25.000 fps
Color space : YUV
Chroma subsampling : 4:2:0
Bit depth : 8 bits
Scan type : Progressive
Compression mode : Lossy
Bits/(Pixel*Frame) : 0.247
Stream size : 1.15 GiB (85%)
Writing library : XviD 73
Audio #1
ID : 1
Format : MPEG Audio
Format version : Version 1
Format profile : Layer 3
Codec ID : 55
Codec ID/Hint : MP3
Duration : 1h 11mn
Bit rate mode : Constant
Bit rate : 192 Kbps
Channel count : 2 channels
Sampling rate : 48.0 KHz
Compression mode : Lossy
Stream size : 98.4 MiB (7%)
Alignment : Aligned on interleaves
Interleave, duration : 40 ms (1.00 video frame)
Interleave, preload duration : 504 ms
Writing library : LAME3.99r
Encoding settings : -m s -V 4 -q 0 -lowpass 18.6 -b 192
Audio #2
ID : 2
Format : AC-3
Format/Info : Audio Coding 3
Mode extension : CM (complete main)
Format settings, Endianness : Big
Codec ID : 2000
Duration : 1h 11mn
Bit rate mode : Constant
Bit rate : 192 Kbps
Channel count : 2 channels
Channel positions : Front: L R
Sampling rate : 48.0 KHz
Bit depth : 16 bits
Compression mode : Lossy
Stream size : 98.4 MiB (7%)
Alignment : Split accross interleaves
Interleave, duration : 40 ms (1.00 video frame)
Interleave, preload duration : 500 ms
Скриншот c названием фильма Скриншоты Сравнение
[url=http://***/forum/viewtopic.php?t=3090670]http://***/forum/viewtopic.php?t=3090670[/url]
http://screenshotcomparison.com/comparison/85918/picture:3
Скачать

Скачать торрент!

Как скачивать? · Что такое торрент? · Рейтинг и ограничения

Сайт не распространяет и не хранит электронные версии произведений, а лишь предоставляет доступ к создаваемому пользователями каталогу ссылок на торрент-файлы, которые содержат только списки хеш-сумм

[Профиль] [ЛС]
Показать сообщения:    
Ответить на тему

Текущее время: Сегодня 18:27

Часовой пояс: GMT + 4



Вы не можете начинать темы
Вы не можете отвечать на сообщения
Вы не можете редактировать свои сообщения
Вы не можете удалять свои сообщения
Вы не можете голосовать в опросах
Вы не можете прикреплять файлы к сообщениям
Вы не можете скачивать файлы