Первобытный папа / The Primaeval Father (Владимир Данилов) [2012, мультфильм, WEBRip-AVC]

Ответить на тему
 
Автор Сообщение

user ®

Стаж: 7 лет 7 месяцев

Сообщений: 20008

Пост Пост: #1 от 31-Июл-2014 14:45

[Цитировать]

Первобытный папа / The Primaeval Father
Страна: Россия
Жанр: мультфильм
Продолжительность: 00:03:02
Год выпуска: 2012
Режиссёр: Владимир Данилов
Описание: Шуточный сюжет о том, что развитие прогресса в каменном веке могло бы происходить быстрее, но у первобытного изобретателя был очень строгий папа.
Доп. информация: Приз за лучший студенческий фильм на Суздальском фестивале (2013)
Качество: WEBRip-AVC
Формат: MP4
Видео: 2308 kbps, 1280х720 (16:9), 25.000 fps, AVC (High@L3.1)
Аудио: 192 kbps, 44.1 kHz, 2 channels, AAC (LC)
Субтитры: отсутствуют
Подробные технические данные
GeneralComplete name : Первобытный папа (2012).mp4Format : MPEG-4Format profile : Base Media / Version 2Codec ID : mp42File size : 54.5 MiBDuration : 3mn 2sOverall bit rate mode : VariableOverall bit rate : 2 502 KbpsEncoded date : UTC 2013-02-24 16:19:43Tagged date : UTC 2013-02-24 16:19:43gsst : 0gstd : 182670gssd : B4A7DDAE6HH1386070165579437gshh : r6---sn-4g57kuer.c.docs.google.com
VideoID : 1Format : AVCFormat/Info : Advanced Video CodecFormat profile : High@L3.1Format settings, CABAC : YesFormat settings, ReFrames : 1 frameCodec ID : avc1Codec ID/Info : Advanced Video CodingDuration : 3mn 2sBit rate : 2 308 KbpsMaximum bit rate : 5 104 KbpsWidth : 1 280 pixelsHeight : 720 pixelsDisplay aspect ratio : 16:9Frame rate mode : ConstantFrame rate : 25.000 fpsColor space : YUVChroma subsampling : 4:2:0Bit depth : 8 bitsScan type : ProgressiveBits/(Pixel*Frame) : 0.100Stream size : 50.2 MiB (92%)Tagged date : UTC 2013-02-24 16:19:55
AudioID : 2Format : AACFormat/Info : Advanced Audio CodecFormat profile : LCCodec ID : 40Duration : 3mn 2sBit rate mode : VariableBit rate : 192 KbpsMaximum bit rate : 201 KbpsChannel(s) : 2 channelsChannel positions : Front: L RSampling rate : 44.1 KHzCompression mode : LossyStream size : 4.18 MiB (8%)Title : IsoMedia File Produced by Google, 5-11-2011Encoded date : UTC 2013-02-24 16:19:52Tagged date : UTC 2013-02-24 16:19:55
Скриншоты
Скачать

Скачать торрент!

Как скачивать? · Что такое торрент? · Рейтинг и ограничения

Сайт не распространяет и не хранит электронные версии произведений, а лишь предоставляет доступ к создаваемому пользователями каталогу ссылок на торрент-файлы, которые содержат только списки хеш-сумм

[Профиль] [ЛС]
Показать сообщения:    
Ответить на тему

Текущее время: Сегодня 21:51

Часовой пояс: GMT + 4



Вы не можете начинать темы
Вы не можете отвечать на сообщения
Вы не можете редактировать свои сообщения
Вы не можете удалять свои сообщения
Вы не можете голосовать в опросах
Вы не можете прикреплять файлы к сообщениям
Вы не можете скачивать файлы