Монтевидео, увидимся! / Montevideo, vidimo se! (Драган Бьелогрлич / Dragan Bjelogrlic) [2014, Сербия, спорт, драма, мелодрама, комедия, приключения, история, DVDRip] VO (ViruseProject)

Ответить на тему
 
Автор Сообщение

user ®

Стаж: 7 лет 7 месяцев

Сообщений: 20008

Пост Пост: #1 от 31-Июл-2014 11:35

[Цитировать]

Монтевидео, увидимся! / Montevideo, vidimo se!
Год выпуска: 2014
Страна: Сербия
Жанр: спорт, драма, мелодрама, комедия, приключения, история
Продолжительность: 02:26:54
Перевод: Одноголосый закадровый ViruseProject
Русские субтитры: нет
Режиссёр: Драган Бьелогрлич / Dragan Bjelogrlic
В ролях: Милош Бикович, Петар Стругар, Виктор Савич, Armand Assante, Ivan Zekic, Небойша Илич, Войин Четкович, Никола Джурицко, Srdjan Timarov, Срджан Тодорович, Драган Николич и др.
Описание: Футбольная сага 1930 года. Была продолжена в столице Уругвая, где после тяжелого путешествия через Атлантику, первая сформированная команда, Королевства Югославии была в числе участвующих в первом чемпионате мира по футболу. Команда из небольшой балканской страны, которой обеспечивают минимальные шансы на успех, жребий попадает на главного противника чемпионата, сборной Бразилии!



Закадровое озвучание: Александр Харченко
Сведение звука: viruse (Виталий Емельянов)
скачать СЕМПЛ с multi-up
Видео взято отсюда: [url=http://***/forum/viewtopic.php?t=4789686]http://***/forum/viewtopic.php?t=4789686[/url]
Качество: DVDRip
Формат: AVI
Видео кодек: XviD
Аудио кодек: MP3
Видео: 640x368 (1.74:1), 25 fps, XviD MPEG-4 ~1222 kbps avg, 0.21 bit/pixel
Аудио: 48 kHz, MPEG Layer 3, 2 ch, ~192.00 kbps avg
MediaInfo
D:\ОЗВУЧКА\СМИТ\Montevideo.vidimo.se.2014.DVDRip.ViruseProject.avi
General
Complete name : D:\ОЗВУЧКА\СМИТ\Montevideo.vidimo.se.2014.DVDRip.ViruseProject.avi
Format : AVI
Format/Info : Audio Video Interleave
File size : 1.46 GiB
Duration : 2h 26mn
Overall bit rate : 1 424 Kbps
Writing application : VirtualDubMod 1.5.10.2 (build 2540/release)
Writing library : VirtualDubMod build 2540/release
Video #0
ID : 0
Format : MPEG-4 Visual
Format profile : Advanced Simple@L5
Format settings, BVOP : 1
Format settings, QPel : No
Format settings, GMC : No warppoints
Format settings, Matrix : Custom
Codec ID : XVID
Codec ID/Hint : XviD
Duration : 2h 26mn
Bit rate : 1 223 Kbps
Width : 640 pixels
Height : 368 pixels
Display aspect ratio : 1.739
Frame rate : 25.000 fps
Color space : YUV
Chroma subsampling : 4:2:0
Bit depth : 8 bits
Scan type : Progressive
Compression mode : Lossy
Bits/(Pixel*Frame) : 0.208
Stream size : 1.25 GiB (86%)
Writing library : XviD 64
Audio #1
ID : 1
Format : MPEG Audio
Format version : Version 1
Format profile : Layer 3
Mode : Joint stereo
Codec ID : 55
Codec ID/Hint : MP3
Duration : 2h 26mn
Bit rate mode : Constant
Bit rate : 192 Kbps
Channel count : 2 channels
Sampling rate : 48.0 KHz
Compression mode : Lossy
Stream size : 202 MiB (13%)
Alignment : Aligned on interleaves
Interleave, duration : 40 ms (1.00 video frame)
Interleave, preload duration : 504 ms
Language : English
Скриншоты ---->[url=http://***/forum/viewtopic.php?t=4758888]Монтевидео: Божественное видение / Montevideo, Bog te video! / VO (ViruseProject)[/url]
Скачать

Скачать торрент!

Как скачивать? · Что такое торрент? · Рейтинг и ограничения

Сайт не распространяет и не хранит электронные версии произведений, а лишь предоставляет доступ к создаваемому пользователями каталогу ссылок на торрент-файлы, которые содержат только списки хеш-сумм

[Профиль] [ЛС]
Показать сообщения:    
Ответить на тему

Текущее время: Сегодня 22:35

Часовой пояс: GMT + 4



Вы не можете начинать темы
Вы не можете отвечать на сообщения
Вы не можете редактировать свои сообщения
Вы не можете удалять свои сообщения
Вы не можете голосовать в опросах
Вы не можете прикреплять файлы к сообщениям
Вы не можете скачивать файлы