Голгофа / Calvary (Джон Майкл МакДона / John Michael McDonagh) [2014, Ирландия, Великобритания, драма, BDRip 720p] DVO (Гланц и Королева) + MVO (Blu-Ray RUS) + Sub Rus, Eng + Original Eng

Ответить на тему
 
Автор Сообщение

user ®

Стаж: 7 лет 7 месяцев

Сообщений: 20008

Пост Пост: #1 от 30-Июл-2014 01:25

[Цитировать]

--Голгофа / Calvary-- Страна: Ирландия, Великобритания
Жанр: драма
Год выпуска: 2014
Продолжительность: 01:41:30
Перевод: Профессиональный (двухголосый закадровый) Гланц и Королева
Перевод 2: Профессиональный (многоголосый закадровый) Blu-Ray RUS
Cубтитры: русские (Гланц и Королёва), русские (Blu-Ray RUS), английские
Оригинальная аудиодорожка: английский-Режиссер: Джон Майкл МакДона / John Michael McDonagh-В ролях: Брендан Глисон, Крис О’Дауд, Келли Райлли, Эйден Гиллен, Дилан Моран, Исаак Де Банколе, М. Эммет Уолш, Мари-Жозе Кроз, Домналл Глисон, Дэвид Уилмо-Описание: Давно не было такой недельки у отца Джеймса: исповедь, начинающаяся со слов «я собираюсь вас убить», поджог церкви и драка в пабе. Быть священником и направлять свою паству непросто. Без чувства юмора, иронии и прощения не обойтись.-Доп. информация:
Релиз: Glanz и AlexFilm
Монтаж и сведение звука: Михаил Шорыгин
Перевод и озвучание: Пётр Гланц (Иващенко) и Инна Королёва
-Качество видео: BDRip 720p (HDClub)
Формат видео: MKV
Видео: 1280x544 (2.35:1), 24 fps, MPEG-4 AVC, 4179 kbps avg, 0.23 bit/pixel
Аудио rus 1: 48 kHz/16-bit, DTS, 3/2 (L,C,R,l,r) + LFE ch, ~1510.00 kbps DVO (Гланц и Королёва)
Аудио rus 2: 48 kHz/16-bit, DTS, 3/2 (L,C,R,l,r) + LFE ch, ~1510.00 kbps MVO (Blu-Ray RUS)
Аудио eng: 48 kHz/16-bit, DTS, 3/2 (L,C,R,l,r) + LFE ch, ~1510.00 kbps
Формат субтитров: softsub (SRT)
MediaInfo
General
Unique ID : 223082803126810845850587934909105367682 (0xA7D42F6038C1DF7CA9827E154A6EEA82)
Complete name : G:\Films\Calvary.720\Calvary.2014.BDRip.720p.Rus(Гланц-Королёва).Eng.AlexFilm.mkv
Format : Matroska
Format version : Version 4 / Version 2
File size : 6.30 GiB
Duration : 1h 41mn
Overall bit rate : 8 884 Kbps
Movie name : Calvary 2014
Encoded date : UTC 2014-07-20 22:11:10
Writing application : mkvmerge v6.6.0 ('The Edge Of The In Between') built on Dec 1 2013 17:55:00
Writing library : libebml v1.3.0 + libmatroska v1.4.1
Video
ID : 1
Format : AVC
Format/Info : Advanced Video Codec
Format profile : High@L4.1
Format settings, CABAC : Yes
Format settings, ReFrames : 11 frames
Codec ID : V_MPEG4/ISO/AVC
Duration : 1h 41mn
Bit rate : 4 179 Kbps
Width : 1 280 pixels
Height : 544 pixels
Display aspect ratio : 2.35:1
Frame rate mode : Constant
Frame rate : 24.000 fps
Color space : YUV
Chroma subsampling : 4:2:0
Bit depth : 8 bits
Scan type : Progressive
Bits/(Pixel*Frame) : 0.250
Stream size : 2.96 GiB (47%)
Writing library : x264 core 142 r2431+42 c69a006 tMod [8-bit@all X86_64]
Encoding settings : cabac=1 / ref=11 / deblock=1:-3:-3 / analyse=0x3:0x133 / me=umh / subme=11 / psy=1 / fade_compensate=0.00 / psy_rd=1.00:0.00 / mixed_ref=1 / me_range=48 / chroma_me=1 / trellis=2 / 8x8dct=1 / cqm=0 / deadzone=21,11 / fast_pskip=0 / chroma_qp_offset=-2 / threads=12 / lookahead_threads=2 / sliced_threads=0 / nr=0 / decimate=1 / interlaced=0 / bluray_compat=0 / constrained_intra=0 / fgo=0 / bframes=8 / b_pyramid=2 / b_adapt=2 / b_bias=0 / direct=1 / weightb=1 / open_gop=0 / weightp=2 / keyint=240 / keyint_min=24 / scenecut=40 / intra_refresh=0 / rc_lookahead=60 / rc=crf / mbtree=0 / crf=16.6000 / qcomp=0.70 / qpmin=0:0:0 / qpmax=69:69:69 / qpstep=4 / vbv_maxrate=50000 / vbv_bufsize=62500 / crf_max=0.0 / nal_hrd=none / filler=0 / ip_ratio=1.25 / pb_ratio=1.15 / aq=4:0.70 / aq-sensitivity=10.00 / aq-factor=1.00:1.00:1.00 / aq2=0 / aq3=0
Language : English
Default : Yes
Forced : No
Audio #1
ID : 2
Format : DTS
Format/Info : Digital Theater Systems
Mode : 16
Format settings, Endianness : Big
Codec ID : A_DTS
Duration : 1h 41mn
Bit rate mode : Constant
Bit rate : 1 510 Kbps
Channel(s) : 6 channels
Channel positions : Front: L C R, Side: L R, LFE
Sampling rate : 48.0 KHz
Bit depth : 16 bits
Compression mode : Lossy
Stream size : 1.07 GiB (17%)
Title : DTS 5.1 DVO Гланц и Королёва
Language : Russian
Default : Yes
Forced : No
Audio #2
ID : 3
Format : DTS
Format/Info : Digital Theater Systems
Mode : 16
Format settings, Endianness : Big
Codec ID : A_DTS
Duration : 1h 41mn
Bit rate mode : Constant
Bit rate : 1 509 Kbps
Channel(s) : 6 channels
Channel positions : Front: L C R, Side: L R, LFE
Sampling rate : 48.0 KHz
Bit depth : 16 bits
Compression mode : Lossy
Stream size : 1.07 GiB (17%)
Title : DTS 5.1 MVO Blu-ray RUS
Language : Russian
Default : No
Forced : No
Audio #3
ID : 4
Format : DTS
Format/Info : Digital Theater Systems
Mode : 16
Format settings, Endianness : Big
Codec ID : A_DTS
Duration : 1h 41mn
Bit rate mode : Constant
Bit rate : 1 509 Kbps
Channel(s) : 6 channels
Channel positions : Front: L C R, Side: L R, LFE
Sampling rate : 48.0 KHz
Bit depth : 16 bits
Compression mode : Lossy
Stream size : 1.07 GiB (17%)
Title : DTS 5.1 Original
Language : English
Default : No
Forced : No
Text #1
ID : 5
Format : UTF-8
Codec ID : S_TEXT/UTF8
Codec ID/Info : UTF-8 Plain Text
Title : Гланц и Королёва
Language : Russian
Default : No
Forced : No
Text #2
ID : 6
Format : UTF-8
Codec ID : S_TEXT/UTF8
Codec ID/Info : UTF-8 Plain Text
Title : Blu-ray RUS
Language : Russian
Default : No
Forced : No
Text #3
ID : 7
Format : UTF-8
Codec ID : S_TEXT/UTF8
Codec ID/Info : UTF-8 Plain Text
Title : Original
Language : English
Default : No
Forced : No
Menu
00:00:00.000 : en:Chapter 1
00:09:51.125 : en:Chapter 2
00:19:20.166 : en:Chapter 3
00:28:08.208 : en:Chapter 4
00:38:09.625 : en:Chapter 5
00:47:33.041 : en:Chapter 6
00:58:09.500 : en:Chapter 7
01:04:43.291 : en:Chapter 8
01:10:57.000 : en:Chapter 9
01:19:39.166 : en:Chapter 10
01:24:27.333 : en:Chapter 11
01:29:28.500 : en:Chapter 12
01:36:53.166 : en:Chapter 13
Скриншот c названием фильма Скриншоты
Скачать

Скачать торрент!

Как скачивать? · Что такое торрент? · Рейтинг и ограничения

Сайт не распространяет и не хранит электронные версии произведений, а лишь предоставляет доступ к создаваемому пользователями каталогу ссылок на торрент-файлы, которые содержат только списки хеш-сумм

[Профиль] [ЛС]
Показать сообщения:    
Ответить на тему

Текущее время: Сегодня 23:18

Часовой пояс: GMT + 4



Вы не можете начинать темы
Вы не можете отвечать на сообщения
Вы не можете редактировать свои сообщения
Вы не можете удалять свои сообщения
Вы не можете голосовать в опросах
Вы не можете прикреплять файлы к сообщениям
Вы не можете скачивать файлы