Клиффорд / Clifford (Пол Флаэрти / Paul Flaherty) [1994, США, комедия, HDTV 1080i] DVO (НТВ+) + 2х AVO (Королев, Михалев) + Original Eng

Ответить на тему
 
Автор Сообщение

user ®

Стаж: 7 лет 7 месяцев

Сообщений: 20008

Пост Пост: #1 от 30-Июл-2014 01:25

[Цитировать]

Клиффорд / Clifford
Страна: США
Студия: Morra, Brezner, Steinberg and Tenenbaum Entertainment (MBST), Orion Pictures
Жанр: комедия
Год выпуска: 1994
Продолжительность: 01:26:07
Перевод 1: Профессиональный (двухголосый закадровый) НТВ+
Перевод 2: Авторский (одноголосый закадровый) В. Королев
Перевод 3: Авторский (одноголосый закадровый) А. Михалев
Cубтитры: нет
Оригинальная аудиодорожка: английский
Режиссер: Пол Флаэрти / Paul Flaherty
В ролях: Мартин Шорт / Martin Short, Чарльз Гродин / Charles Grodin, Мэри Стинберген / Mary Steenburgen, Дэбни Коулмэн, Ричард Кайнд, Брэндис Кемп, Бен Сэвадж, Дон Гэлловэй
Описание: Родители Клиффорда, фантастически трудного ребенка, отправили неисправимое чадо к дяде в Лос-Анджелес. Ведь Клиффорд перешёл уже все границы, устроив вынужденную посадку самолета, на котором он с родителями летел в Гонолулу. Мальчуган мечтал увидеть парк динозавров, и ничто не могло его остановить. Дядя, получив на руки этого малолетнего злодея, вскоре проклянёт всё на свете. Из-за него он поссорится с невестой, побывает в тюрьме, лишится работы и… это еще не конец забавных приключений!
II Сэмпл II IMDB II
Тип релиза: HDTV 1080i
Контейнер: MKV
Видео: AVC 1920x1080 (16:9) 25.0fps Bit rate 6147Kbps
Аудио 1: MP2 / 48.0 KHz / 2ch. / 192kbps / rus / dvo
Аудио 2: AC3 / 48.0 KHz / 2ch. / 192kbps / rus / avo
Аудио 3: AC3 / 48.0 KHz / 2ch. / 192kbps / rus / avo
Аудио 4: AC3 / 48.0 KHz / 2ch. / 192kbps / eng
MediaInfo
Общее
Уникальный идентификатор : 233148652304108231188595713830538411701 (0xAF66CC0E85D91D26B6877493D4D77EB5)
Полное имя : E:\torrent\Clifford.1994.HDTV.1080i.mkv
Формат : Matroska
Версия формата : Version 4 / Version 2
Размер файла : 4,24 Гбайт
Продолжительность : 1 ч. 26 м.
Общий поток : 7055 Кбит/сек
Дата кодирования : UTC 2014-07-28 02:21:14
Программа кодирования : mkvmerge v7.0.0 ('Where We Going') 32bit built on Jun 9 2014 15:08:34
Библиотека кодирования : libebml v1.3.0 + libmatroska v1.4.1
DURATION : 01:26:07.072000000
NUMBER_OF_FRAMES : 161471
NUMBER_OF_BYTES : 124009728
_STATISTICS_WRITING_APP : mkvmerge v7.0.0 ('Where We Going') 32bit built on Jun 9 2014 15:08:34
_STATISTICS_WRITING_DATE_UTC : 2014-07-28 02:21:14
_STATISTICS_TAGS : BPS DURATION NUMBER_OF_FRAMES NUMBER_OF_BYTES
Видео
Идентификатор : 1
Формат : AVC
Формат/Информация : Advanced Video Codec
Профиль формата : High@L4.0
Параметр CABAC формата : Да
Параметр ReFrames формата : 3 кадра
Параметр GOP формата : M=4, N=32
Идентификатор кодека : V_MPEG4/ISO/AVC
Продолжительность : 1 ч. 26 м.
Битрейт : 6147 Кбит/сек
Ширина : 1920 пикселей
Высота : 1080 пикселей
Соотношение сторон : 16:9
Режим частоты кадров : Постоянный
Частота кадров : 25,000 кадров/сек
Стандарт вещания : Component
Цветовое пространство : YUV
Субдискретизация насыщенности : 4:2:0
Битовая глубина : 8 бит
Тип развёртки : Чересстрочная
Порядок развёртки : Верхнее поле первое
Бит/(Пиксели*Кадры) : 0.119
Размер потока : 3,70 Гбайт (87%)
Заголовок : Clifford.1994.HDTV.1080i
Default : Да
Forced : Нет
Основные цвета : BT.709
Характеристики трансфера : BT.709
Коэффициенты матрицы : BT.709
Аудио #1
Идентификатор : 2
Формат : MPEG Audio
Версия формата : Version 1
Профиль формата : Layer 2
Идентификатор кодека : A_MPEG/L2
Идентификатор кодека/Подсказка : MP2
Продолжительность : 1 ч. 26 м.
Вид битрейта : Постоянный
Битрейт : 192 Кбит/сек
Каналы : 2 канала
Частота : 48,0 КГц
Метод сжатия : С потерями
Размер потока : 118 Мбайт (3%)
Заголовок : AC3 / 48KHz / 2ch / 192Kbps / rus / dvo / NTV+
Язык : Russian
Default : Да
Forced : Нет
Аудио #2
Идентификатор : 3
Формат : AC-3
Формат/Информация : Audio Coding 3
Расширение режима : CM (complete main)
Параметр Endianness формата : Big
Идентификатор кодека : A_AC3
Продолжительность : 1 ч. 26 м.
Вид битрейта : Постоянный
Битрейт : 192 Кбит/сек
Каналы : 2 канала
Расположение каналов : Front: L R
Частота : 48,0 КГц
Битовая глубина : 16 бит
Метод сжатия : С потерями
Размер потока : 118 Мбайт (3%)
Заголовок : AC3 / 48KHz / 2ch / 192Kbps / rus / avo / Korolev
Язык : Russian
Default : Нет
Forced : Нет
Аудио #3
Идентификатор : 4
Формат : AC-3
Формат/Информация : Audio Coding 3
Расширение режима : CM (complete main)
Параметр Endianness формата : Big
Идентификатор кодека : A_AC3
Продолжительность : 1 ч. 26 м.
Вид битрейта : Постоянный
Битрейт : 192 Кбит/сек
Каналы : 2 канала
Расположение каналов : Front: L R
Частота : 48,0 КГц
Битовая глубина : 16 бит
Метод сжатия : С потерями
Размер потока : 118 Мбайт (3%)
Заголовок : AC3 / 48KHz / 2ch / 192Kbps / rus / avo / Mihalev
Язык : Russian
Default : Нет
Forced : Нет
Аудио #4
Идентификатор : 5
Формат : AC-3
Формат/Информация : Audio Coding 3
Расширение режима : CM (complete main)
Параметр Endianness формата : Big
Идентификатор кодека : A_AC3
Продолжительность : 1 ч. 26 м.
Вид битрейта : Постоянный
Битрейт : 192 Кбит/сек
Каналы : 2 канала
Расположение каналов : Front: L R
Частота : 48,0 КГц
Битовая глубина : 16 бит
Метод сжатия : С потерями
Размер потока : 118 Мбайт (3%)
Заголовок : AC3 / 48KHz / 2ch / 192Kbps / original eng
Язык : English
Default : Нет
Forced : Нет
Скриншот с названием фильма Скриншоты Сравнение с DVD
Скачать

Скачать торрент!

Как скачивать? · Что такое торрент? · Рейтинг и ограничения

Сайт не распространяет и не хранит электронные версии произведений, а лишь предоставляет доступ к создаваемому пользователями каталогу ссылок на торрент-файлы, которые содержат только списки хеш-сумм

[Профиль] [ЛС]
Показать сообщения:    
Ответить на тему

Текущее время: Сегодня 03:58

Часовой пояс: GMT + 4



Вы не можете начинать темы
Вы не можете отвечать на сообщения
Вы не можете редактировать свои сообщения
Вы не можете удалять свои сообщения
Вы не можете голосовать в опросах
Вы не можете прикреплять файлы к сообщениям
Вы не можете скачивать файлы