Крот / Kurmis the mole (Генрикас Вайгаускас) [1991, мультфильм рисованный, DVDRip]

Ответить на тему
 
Автор Сообщение

user ®

Стаж: 7 лет 7 месяцев

Сообщений: 20008

Пост Пост: #1 от 29-Июл-2014 09:45

[Цитировать]

Крот / Kurmis the mole
Страна: CCCР
Производство: Литовская студия анимационных фильмов
Жанр: мультфильм рисованный
Продолжительность: 00:01:34
Год выпуска: 1991
Перевод: Не требуется
Русские субтитры: нет
Режиссёр: Генрикас Вайгаускас
Описание: Аккуратный огородник пытается выгнать вторгшегося на его участок крота. Не тут-то было - зверек не так прост!
Кинопоиск
Качество: DVDRip
Формат: AVI
Видео: 704x528 (1.33:1), 25 fps, XviD MPEG-4 ~1993 kbps avg, 0.214 bit/pixel
Аудио: 44.1 kHz, MPEG Layer 3, 2 ch, ~128.00 kbps avg
Субтитры: Отсутствуют

Подробные технические данные
GeneralComplete name : E:\1\мультики\Крот 1991.aviFormat : AVIFormat/Info : Audio Video InterleaveFile size : 24.0 MiBDuration : 1mn 34sOverall bit rate : 2 132 KbpsWriting application : VirtualDubMod 1.5.10.3 | www.virtualdub-fr.org || (build 2550/release)Writing library : VirtualDubMod build 2550/release
VideoID : 0Format : MPEG-4 VisualFormat profile : Advanced Simple@L5Format settings, BVOP : 2Format settings, QPel : NoFormat settings, GMC : No warppointsFormat settings, Matrix : Default (H.263)Codec ID : XVIDCodec ID/Hint : XviDDuration : 1mn 34sBit rate : 1 993 KbpsWidth : 704 pixelsHeight : 528 pixelsDisplay aspect ratio : 4:3Frame rate : 25.000 fpsColor space : YUVChroma subsampling : 4:2:0Bit depth : 8 bitsScan type : ProgressiveCompression mode : LossyBits/(Pixel*Frame) : 0.214Stream size : 22.5 MiB (93%)Writing library : XviD 1.2.1 (UTC 2008-12-04)
AudioID : 1Format : MPEG AudioFormat version : Version 1Format profile : Layer 3Codec ID : 55Codec ID/Hint : MP3Duration : 1mn 34sBit rate mode : ConstantBit rate : 128 KbpsChannel count : 2 channelsSampling rate : 44.1 KHzCompression mode : LossyStream size : 1.44 MiB (6%)Alignment : Split accross interleavesInterleave, duration : 40 ms (1.00 video frame)Interleave, preload duration : 500 msWriting library : LAME3.99rEncoding settings : -m s -V 4 -q 2 -lowpass 17 -b 128
Скриншоты
Скачать

Скачать торрент!

Как скачивать? · Что такое торрент? · Рейтинг и ограничения

Сайт не распространяет и не хранит электронные версии произведений, а лишь предоставляет доступ к создаваемому пользователями каталогу ссылок на торрент-файлы, которые содержат только списки хеш-сумм

[Профиль] [ЛС]
Показать сообщения:    
Ответить на тему

Текущее время: Сегодня 18:35

Часовой пояс: GMT + 4



Вы не можете начинать темы
Вы не можете отвечать на сообщения
Вы не можете редактировать свои сообщения
Вы не можете удалять свои сообщения
Вы не можете голосовать в опросах
Вы не можете прикреплять файлы к сообщениям
Вы не можете скачивать файлы